TV / Horror
The Walking Dead S09E01-06 [1080p.iT.WEB-DL.H.264.AC3] [Lektor PL] [ENG+Napisy PL]


Dodał: Lukarusi
Data dodania:
2018-11-13 20:36:06
Rozmiar: 12.25 GB
Ostat. aktualizacja:
2018-11-20 15:37:46
Seedów: 47
Peerów: 71


Komentarze: 3

Info:

produkcja: USA
gatunek: Dramat, Horror, Thriller
reżyseria: Greg Nicotero, Michael E. Satrazemis, Larry Teng
scenariusz: Frank Darabont, Robert Kirkman, Charlie Adlard, Tony Moore
zdjęcia: Duane Manwiller
muzyka: Bear McCreary
czas trwania: ok. 44-58 min.

Opis:

Serial opowiada o czasie następującym po pandemicznej apokalipsie, po której świat opanowały zombie. Szeryf Rick Grimes podróżuje wraz z rodziną i z garstką ocalałych, w bezustannym poszukiwaniu bezpiecznego schronienia. Ciągła presja oraz codzienne zmagania się z zagrożeniem i śmiercią zbierają krwawe żniwo, popychając wielu ku otchłani najgłębszego ludzkiego okrucieństwa. W trakcie walki o przeżycie swojej rodziny, Rick odkrywa, że wszechogarniający strach ocalałych może być dużo bardziej niebezpieczny, niż przemierzające świat zombie.

Obsada:

Andrew Lincoln - Rick Grimes
Danai Gurira - Michonne
Lauren Cohan - Maggie Greene
Josh McDermitt - Eugene Porter
Norman Reedus - Daryl Dixon
Melissa McBride - Carol Peletier
Christian Serratos - Rosita Espinosa
Jeffrey Dean Morgan - Negan
Seth Gilliam - Gabriel Stokes

Dane techniczne:

Format : Matroska
Format version : Version 4 / Version 2
File size : 2.45 GiB
Duration : 58 min 34 s
Overall bit rate : 5 979 kb/s
Encoded date : UTC 2018-10-25 18:26:26

Video
ID : 1
Format : AVC
Format/Info : Advanced Video Codec
Format profile : High@L4
Format settings : CABAC / 4 Ref Frames
Format settings, CABAC : Yes
Format settings, ReFrames : 4 frames
Codec ID : V_MPEG4/ISO/AVC
Duration : 58 min 34 s
Bit rate : 5 208 kb/s
Width : 1 916 pixels
Height : 1 076 pixels
Display aspect ratio : 16:9
Frame rate mode : Constant
Frame rate : 23.976 FPS
Color space : YUV
Chroma subsampling : 4:2:0
Bit depth : 8 bits
Scan type : Progressive
Bits/(Pixel*Frame) : 0.105
Stream size : 2.13 GiB (87%)
Default : Yes
Forced : Yes
Color range : Limited
Color primaries : BT.709
Transfer characteristics : BT.709
Matrix coefficients : BT.709

Audio 1
ID : 2
Format : AC-3
Format/Info : Audio Coding 3
Codec ID : A_AC3
Duration : 58 min 34 s
Bit rate mode : Constant
Bit rate : 384 kb/s
Channel(s) : 2 channels
Channel positions : Front: L R
Sampling rate : 48.0 kHz
Frame rate : 31.250 FPS (1536 SPF)
Bit depth : 16 bits
Compression mode : Lossy
Stream size : 161 MiB (6%)
Language : Polish
Service kind : Complete Main
Default : Yes
Forced : Yes

Audio 2
ID : 3
Format : AC-3
Format/Info : Audio Coding 3
Codec ID : A_AC3
Duration : 58 min 34 s
Bit rate mode : Constant
Bit rate : 384 kb/s
Channel(s) : 6 channels
Channel positions : Front: L C R, Side: L R, LFE
Sampling rate : 48.0 kHz
Frame rate : 31.250 FPS (1536 SPF)
Bit depth : 16 bits
Compression mode : Lossy
Stream size : 161 MiB (6%)
Language : English
Service kind : Complete Main
Default : No
Forced : No

Text
ID : 4
Format : UTF-8
Codec ID : S_TEXT/UTF8
Codec ID/Info : UTF-8 Plain Text
Duration : 57 min 18 s
Bit rate : 41 b/s
Count of elements : 446
Stream size : 17.5 KiB (0%)
Language : Polish
Default : No
Forced : No

Lista plików Show/Hide [Pokaż/Ukryj]
Trackery
  • http://tracker.torrentyorg.pl/announce
  • udp://exodus.desync.com:6969/announce
  • http://tracker.vanitycore.co:6969/announce
  • udp://9.rarbg.com:2800/announce
  • udp://9.rarbg.me:2740/announce
  • udp://torrent.gresille.org:80/announce
  • udp://eddie4.nl:6969/announce
  • udp://tracker.glotorrents.com:6969/announce
  • http://tracker.tfile.me/announce
  • udp://poloniumsurfer.tk:6969/announce
  • udp://tracker.pomf.se:80/announce
  • udp://10.rarbg.com/announce
  • udp://tracker.openbittorrent.com:80/announce
  • udp://sugoi.pomf.se:80/announce
  • http://mgtracker.org:2710/announce
  • udp://shadowshq.eddie4.nl:6969/announce
  • udp://tracker.prq.to/announce
  • udp://tracker.torrentbay.to:6969/announce
  • udp://t1.pow7.com/announce
  • udp://tracker.istole.it:80/announce
  • http://agusiq-torrents.pl:6969/announce
  • http://retracker.omsk.ru:2710/announce
  • http://tracker.filetracker.pl:8089/announce
  • udp://tracker.leechers-paradise.org:6969/announce
  • udp://tracker.publicbt.com/announce

<< Poprzednia      Następna >>
1 - 3

Dodał: HadesHell Data: 2018-11-13 23:21:47

Dżizas... nie oglądałem żadnego z nowych odcinków dla tej wstawki! Czekałem, wierzyłem!

Dodał: ornitolog Data: 2018-11-14 00:22:57

...a jednak...brawo super!!!

Dodał: atosek0 Data: 2018-11-18 19:53:25

Dzięki

1 - 3
<< Poprzednia      Następna >>

Żaden z plików nie znajduje się na serwerze. Torrenty są własnością użytkowników. Administrator serwisu nie może ponieść konsekwencji za to co użytkownicy wstawiają, lub za to co czynią na stronie. Nie możesz używać tego serwisu do rozpowszechniania lub ściągania materiałów do których nie masz odpowiednich praw lub licencji. Użytkownicy odpowiedzialni są za przestrzeganie tych zasad.
Copyright © 2018 Ex-torrenty.org