XviD/DivX / Dramat
First Man *2018* [720p] [KORSUB] [HDRip] [XviD] [MP3] [STUTTERSHIT] [ENG]


Dodał: Uploader
Data dodania:
2018-11-20 23:25:44
Rozmiar: 3.96 GB
Ostat. aktualizacja:
2018-12-14 20:39:14
Seedów: 274
Peerów: 18


Komentarze: 1

...( Info )...

Produkcja: USA
Gatunek: Biograficzny, Dramat
Premiera: 19 października 2018 (Polska), 29 sierpnia 2018 (świat)
Reżyseria: Damien Chazelle
Scenariusz: Josh Singer

...( Opis )...

Damien Chazelle i Ryan Gosling łączą siły w historycznej opowieści o misji NASA, dzięki której na Księżycu wylądował człowiek. Film skupia się na życiu Neila Armstronga w latach 1961-1969. „Pierwszy człowiek” to wstrząsająca, opowiedziana w pierwszej osobie historia na podstawie książki Jamesa R. Hansena. Zapis trudu, wyrzeczeń i poświęcenia, które wiązały się z jedną z najbardziej niebezpiecznych misji w historii ludzkości.

...( Obsada )...

★ Ryan Gosling .... Neil Armstrong
★ Claire Foy .... Janet Armstrong
★ Jason Clarke .... Ed White
★ Kyle Chandler .... Deke Slayton
★ Corey Stoll .... Buzz Aldrin
★ Patrick Fugit .... Elliott See
★ Christopher Abbott .... Dave Scott
★ Ciarán Hinds .... Bob Gilruth

...( Dane Techniczne )...

Video
ID : 0
Format : MPEG-4 Visual
Format profile : Simple@L5
Format settings, BVOP : No
Format settings, QPel : No
Format settings, GMC : No warppoints
Format settings, Matrix : Default (H.263)
Codec ID : XVID
Codec ID/Hint : XviD
Duration : 2 h 21 min
Bit rate : 3 812 kb/s
Width : 1 280 pixels
Height : 534 pixels
Display aspect ratio : 2.40:1
Frame rate : 30.000 FPS
Color space : YUV
Chroma subsampling : 4:2:0
Bit depth : 8 bits
Scan type : Progressive
Compression mode : Lossy
Bits/(Pixel*Frame) : 0.186
Stream size : 3.76 GiB (95%)
Writing library : Lavc58.1.100

Audio
ID : 1
Format : MPEG Audio
Format version : Version 1
Format profile : Layer 3
Format settings : Joint stereo / MS Stereo
Codec ID : 55
Codec ID/Hint : MP3
Duration : 2 h 21 min
Bit rate mode : Constant
Bit rate : 192 kb/s
Channel(s) : 2 channels
Sampling rate : 48.0 kHz
Compression mode : Lossy
Stream size : 194 MiB (5%)
Alignment : Aligned on interleaves
Interleave, duration : 24 ms (0.72 video frame)
Interleave, preload duration : 504 ms
Writing library : LAME3.99 (alpha)

Lista plików Show/Hide [Pokaż/Ukryj]
Trackery
  • udp://9.rarbg.to:2710/announce
  • udp://9.rarbg.me:2710/announce
  • http://tracker.trackerfix.com:80/announce

<< Poprzednia      Następna >>
1 - 1

Dodał: dannthe Data: 2018-11-26 22:58:57

Jak dotychczas najlepszy film tego roku!
https://bit.ly/2Qc1GbY

1 - 1
<< Poprzednia      Następna >>

Żaden z plików nie znajduje się na serwerze. Torrenty są własnością użytkowników. Administrator serwisu nie może ponieść konsekwencji za to co użytkownicy wstawiają, lub za to co czynią na stronie. Nie możesz używać tego serwisu do rozpowszechniania lub ściągania materiałów do których nie masz odpowiednich praw lub licencji. Użytkownicy odpowiedzialni są za przestrzeganie tych zasad.
Copyright © 2018 Ex-torrenty.org