TV / Dramat historyczny
Wikingowie - Vikings.S05E12.Murder.Most.Foul.1080p.AMZN.WEBRip.DDP5.1.x264-MZABI.ENG


Dodał: PRoDiGy
Data dodania:
2018-12-06 15:46:07
Rozmiar: 1.49 GB
Ostat. aktualizacja:
2018-12-12 23:40:50
Seedów: 4564
Peerów: 638


Komentarze: 3

...( Info )...

Produkcja: Irlandia, Kanada
Gatunek: Dramat historyczny
Twórca: Michael Hirst
Zdjęcia: John S. Bartley
Muzyka: Trevor Morris

...( O filmie )...

YouTube - Trailer
https://www.youtube.com/watch?time_continue=31&v=ATW0SGzSM3U

...( Opis )...

XI wiek. Młody wojownik Ragnar Lothbrok (Travis Fimmel) służy jarlowi Earlowi Haraldsonowi (Gabriel Byrne). Mężczyzna pragnie zdobyć nieodkryte jak dotąd przez wikingów ziemie na zachodzie. Nie podobają mu się decyzje podejmowane przez wodza, który co roku wysyła swoich podwładnych na rabunkowe wyprawy do krain zamieszkałych przez Bałtów i Słowian. W jego działaniach wspierają go oddany przyjaciel, rzemieślnik Floki (Gustaf Skarsgard), brat Rollo (Clive Standen) oraz żona Lagertha (Katheryn Winnick). Oparta na faktach historia owianego legendą nordyckiego wodza.

Ragnar udaje się do Gotlandii, aby zakończyć konflikt o sporną ziemię. Rozpoczyna negocjacje z jarlem Borgiem. Ambitny i kierowany zazdrością Rollo staje przeciwko Lothbrokowi. Tymczasem mieszkańcy Kattegat padają ofiarą epidemii. Umierają m.in. Gyda oraz córka Siggy, Thyri. Lokalna ludność prosi Lagerthę, aby pomogła przebłagać bogów.

...( Obsada )...

Travis Fimmel - Ragnar Lothbrok
Katheryn Winnick - Lagertha Lothbrok
Clive Standen - Rollo
Gabriel Byrne - Earl Haraldson
Jessalyn Gilsig - Siggy Haraldson

...( Dane Techniczne )...

Przykładowe DANE TECHNICZNE jednego odcinka;

Video
ID : 1
Format : AVC
Format/Info : Advanced Video Codec
Format profile : High@L4
Format settings : CABAC / 4 Ref Frames
Format settings, CABAC : Yes
Format settings, ReFrames : 4 frames
Codec ID : V_MPEG4/ISO/AVC
Duration : 45 min 20 s
Bit rate : 4 060 kb/s
Width : 1 920 pixels
Height : 1 080 pixels
Display aspect ratio : 16:9
Frame rate mode : Constant
Frame rate : 23.976 (24000/1001) FPS
Color space : YUV
Chroma subsampling : 4:2:0
Bit depth : 8 bits
Scan type : Progressive
Bits/(Pixel*Frame) : 0.082
Stream size : 1.29 GiB (86%)
Default : Yes
Forced : No
Color range : Limited
Color primaries : BT.709
Transfer characteristics : BT.709
Matrix coefficients : BT.709

Audio
ID : 2
Format : E-AC-3
Format/Info : Enhanced AC-3
Commercial name : Dolby Digital Plus
Codec ID : A_EAC3
Duration : 45 min 20 s
Bit rate mode : Constant
Bit rate : 640 kb/s
Channel(s) : 6 channels
Channel layout : L R C LFE Ls Rs
Sampling rate : 48.0 kHz
Frame rate : 31.250 FPS (1536 SPF)
Compression mode : Lossy
Stream size : 208 MiB (14%)
Title : English
Language : English
Service kind : Complete Main
Default : Yes
Forced : No

Text
ID : 3
Format : UTF-8
Codec ID : S_TEXT/UTF8
Codec ID/Info : UTF-8 Plain Text
Duration : 44 min 21 s
Bit rate : 51 b/s
Count of elements : 644
Stream size : 16.8 KiB (0%)
Title : English [SDH]
Language : English
Default : No
Forced : No

Lista plików Show/Hide [Pokaż/Ukryj]
Trackery
  • udp://9.rarbg.to:2710/announce
  • udp://9.rarbg.me:2710/announce
  • http://tracker.trackerfix.com:80/announce

<< Poprzednia      Następna >>
1 - 3

Dodał: blazius Data: 2018-12-06 19:27:39

chwilowo brak na napiprojekt

Dodał: zeke0 Data: 2018-12-06 21:06:07

Tak dla ścisłości akcja serialu zaczyna się w końcu VIII w., a nie w XI jak twierdzi opis. Dla większości oglądaczy to nieistotny szczegół, ale... dla mnie nie

Dodał: CzarnuchWrk Data: 2018-12-06 22:02:00

kiedy pl odcinek?

1 - 3
<< Poprzednia      Następna >>

Żaden z plików nie znajduje się na serwerze. Torrenty są własnością użytkowników. Administrator serwisu nie może ponieść konsekwencji za to co użytkownicy wstawiają, lub za to co czynią na stronie. Nie możesz używać tego serwisu do rozpowszechniania lub ściągania materiałów do których nie masz odpowiednich praw lub licencji. Użytkownicy odpowiedzialni są za przestrzeganie tych zasad.
Copyright © 2018 Ex-torrenty.org