TV / Kryminalny
Candice Renoir S06E08-10 [FiNAL] [720p] [HDTV] [x264-666] [Lektor PL]


Dodał: tomysparow559
Data dodania:
2019-01-05 04:57:34
Rozmiar: 3.48 GB
Ostat. aktualizacja:
2019-01-05 13:33:48
Seedów: 149
Peerów: 135


Komentarze: 1

==================
...::: INFO :::...
==================

Produkcja: Francja
Gatunek: Dramat, Komedia kryminalna
Czas trwania: 52 min

==================
...::: OPIS :::...
==================

Serial opowiada o funkcjonariuszce policji, komendant Candice Renoir, oraz jej zespole, zajmującym się najróżniejszymi sprawami przestępstw w portowym mieście na południu Francji. Candice niedawno się rozwiodła. Jest matką czwórki dzieci. W swoim codziennym życiu musi znaleźć czas na rozwiązywanie spraw, stawianie czoła swojej o wiele młodszej przełożonej, zajmowanie się dziećmi i ich problemami, a także trzymanie w ryzach swojego zespołu. Serial utrzymany jest w pełnym francuskiego uroku zabawnym, błyskotliwym stylu, a inteligentna fabuła naprawdę wciąga. Nie jest to kolejny nudny serial kryminalny, a powiew francuskiej świeżości w telewizji. Candice natomiast przypomina damską wersję porucznika Columbo, wyposażoną w buty na wysokim obcasie i pistolet kalibru 9 mm.

==============
...::: OBSADA :::...
==============

Cécile Bois - Candice Renoir
RRaphaël Lenglet - Antoine Dumas
Gaya Verneuil - Chrystelle Da Silva
Clara Antoons - Emma Renoir
Etienne Martinelli - Jules Renoir
Alexandre Ruscher - Léo Renoir
Paul Ruscher - Martin Renoir
Samira Lachhab- Yasmine Attia

=======================
...::: DANE TECHNICZNE :::...
=======================


Format : Matroska
Format version : Version 4
File size : 1.11 GiB
Duration : 48 min 52 s
Overall bit rate : 3 240 kb/s
Movie name : Candice.Renoir.S06E03.Rira.bien.qui.rira.le.dernier.PL.720p.HDTV.x264-666
Encoded date : UTC 2018-11-29 09:29:14 / UTC 2018-11-26T22:27:01Z
Writing application : mkvmerge v9.0.1 ('Obstacles') 64bit
Writing library : libebml v1.3.3 + libmatroska v1.4.4 / Lavf55.12.0

Video
ID : 1
Format : AVC
Format/INFO : Advanced Video Codec
Format profile : High@L4.1
Format settings : CABAC / 4 Ref Frames
Format settings, CABAC : Yes
Format settings, ReFrames : 4 frames
Codec ID : V_MPEG4/ISO/AVC
Duration : 48 min 52 s
Bit rate : 3 000 kb/s
Width : 1 280 pixels
Height : 720 pixels
Display aspect ratio : 16:9
Frame rate mode : Constant
Frame rate : 25.000 FPS
Color space : YUV
Chroma subsampling : 4:2:0
Bit depth : 8 bits
Scan type : Progressive
Bits/(Pixel*Frame) : 0.130
Stream size : 1.02 GiB (92%)
Title : Candice.Renoir.S06E03.Rira.bien.qui.rira.le.dernier.PL.720p.HDTV.x264-666
Writing library : x264 core 142 r2479 dd79a61
Encoding settings : cabac=1 / ref=1 / deblock=1:-1:-1 / analyse=0x3:0x113 / me=hex / subme=2 / psy=1 / psy_rd=1.00:0.15 / mixed_ref=0 / me_range=16 / chroma_me=1 / trellis=0 / 8x8dct=1 / cqm=0 / deadzone=21,11 / fast_pskip=1 / chroma_qp_offset=0 / threads=12 / lookahead_threads=4 / sliced_threads=0 / nr=0 / decimate=1 / interlaced=0 / bluray_compat=0 / constrained_intra=0 / bframes=3 / b_pyramid=2 / b_adapt=1 / b_bias=0 / direct=1 / weightb=1 / open_gop=0 / weightp=1 / keyint=250 / keyint_min=25 / scenecut=40 / intra_refresh=0 / rc_lookahead=10 / rc=abr / mbtree=1 / bitrate=3000 / ratetol=1.0 / qcomp=0.60 / qpmin=0 / qpmax=69 / qpstep=4 / vbv_maxrate=62500 / vbv_bufsize=78125 / nal_hrd=none / filler=0 / ip_ratio=1.40 / aq=1:1.00
Default : Yes
Forced : No
Color range : Limited
Color primaries : BT.709
Transfer characteristics : BT.709
Matrix coefficients : BT.709

Audio
ID : 2
Format : AC-3
Format/INFO : Audio Coding 3
Commercial name : Dolby Digital
Codec ID : A_AC3
Duration : 48 min 52 s
Bit rate mode : Constant
Bit rate : 256 kb/s
Channel(s) : 2 channels
Channel layout : L R
Sampling rate : 48.0 kHz
Frame rate : 31.250 FPS (1536 SPF)
Bit depth : 16 bits
Compression mode : Lossy
Delay relative to video : -80 ms
Stream size : 89.5 MiB (8%)
Title : Candice.Renoir.S06E03.Rira.bien.qui.rira.le.dernier.PL.720p.HDTV.x264-666
Language : Polish
Service kind : Complete Main
Default : Yes
Forced : No

Lista plików Show/Hide [Pokaż/Ukryj]
Trackery
  • http://tracker.city9x.com:2710/announce
  • http://tracker2.itzmx.com:6961/announce
  • udp://tracker.coppersurfer.tk:6969/announce
  • udp://tracker.pirateparty.gr:6969/announce
  • udp://tracker.opentrackr.org:1337/announce
  • udp://shadowshq.eddie4.nl:6969/announce
  • udp://eddie4.nl:6969/announce
  • http://open.kickasstracker.com/announce
  • udp://tracker.leechers-paradise.org:6969/announce

<< Poprzednia      Następna >>
1 - 1

Dodał: sawomir11 Data: 2019-01-12 17:27:33

Potrzebuję 5 sezon . Czy możnaby wstawić ???

1 - 1
<< Poprzednia      Następna >>

Żaden z plików nie znajduje się na serwerze. Torrenty są własnością użytkowników. Administrator serwisu nie może ponieść konsekwencji za to co użytkownicy wstawiają, lub za to co czynią na stronie. Nie możesz używać tego serwisu do rozpowszechniania lub ściągania materiałów do których nie masz odpowiednich praw lub licencji. Użytkownicy odpowiedzialni są za przestrzeganie tych zasad.
Copyright © 2019 Ex-torrenty.org