Ex-torrenty.org
Info dla nowych użytkowników na stronie głównej
HD / Wojenny
Wielka ucieczka/The Great Escape (1963)[BDRip 1080p x264 by alE13 AC3/DTS][Lektor i Napisy PL/Eng][Eng]


Dodał: alE13
Data dodania:
2019-01-12 08:06:30
Rozmiar: 17.11 GB
Ostat. aktualizacja:
2019-03-02 19:27:47
Seedów: 5
Peerów: 4


Komentarze: 5

http://i.imgur.com/yAu436L.jpg

https://www.imdb.com/title/tt0057115/
https://www.filmweb.pl/film/Wielka+ucieczka-1963-11669

Plik zawiera Sample.
Audio DTS MA/Core w osobnym pliku.

reżyseria: John Sturges
scenariusz: W.R. Burnett,James Clavell
gatunek: Przygodowy,Wojenny
produkcja: USA
premiera: 20-06-1963
muzyka: Elmer Bernstein
zdjęcia: Daniel L. Fapp
czas: 02:52:13

opis:

Based on a true story, a group of allied escape artist-type prisoners-of-war are all put in an "escape proof" camp.
Their leader decides to try to take out several hundred all at once. The first half of the movie is played for comedy,
as the prisoners mostly outwit their jailers to dig the escape tunnel. The second half is high adventure as they use
planes, trains, and boats to get out of occupied Europe.

Co może robić grupa alianckich lotników zamknięta w niemieckim obozie jenieckim? Oczywiście planować i przeprowadzać
kolejne ucieczki, to przecież obowiązek każdego oficera, który w niewoli powinien się naprzykrzać wrogowi jak tylko
potrafi. Te słowa nie raz usłyszymy z ust krnąbrnych bohaterów filmu Johna Sturgesa.

http://i.imgur.com/oiv1pEc.jpg
http://i.imgur.com/GDmiWDb.jpg
http://i.imgur.com/jCr5S0S.jpg
http://i.imgur.com/fsOaoTL.jpg

obsada:

Steve McQueen, James Garner, Charles Bronson, James Coburn, Donald Pleasence,

dane techniczne:

audio:

The Great Escape (1963)-alE13_DTS.mka

Hash: 137FD89195D9F9C2
Format: Matroska
Czas: 02:52:13.333
Rozmiar: 4.80 GiB (5157177732)

Audio (0):
Kodek: (DTS-HD) DTS-HD
Format: DTS
Kanały: 6 channels
BitRate: 3 990 kb/s / 1 509 kb/s
Tytuł: The Great Escape (1963)-alE13_DTS_MA Core
Język: English

Napisy (0):
Kodek: (S_TEXT/UTF8) UTF-8
Format: UTF-8
Język: English (The Great Escape (1963)-alE13_Full)

Napisy (1):
Kodek: (S_TEXT/UTF8) UTF-8
Format: UTF-8
Język: English (The Great Escape (1963)-alE13_SDH)



video:

The Great Escape (1963)-alE13.mkv
Format : Matroska
Format version : Version 4 / Version 2
File size : 12.2 GiB
Duration : 2 h 52 min
Overall bit rate : 10.2 Mb/s
Movie name : The Great Escape (1963)-alE13
Encoded date : UTC 2018-07-09 04:50:06
Writing application : mkvmerge v8.1.0 ('Psychedelic Postcard') 64bit
Writing library : libebml v1.3.1 + libmatroska v1.4.2
Cover : Yes
Attachments : Cover.jpg

Video
ID : 1
Format : AVC
Format/Info : Advanced Video Codec
Format profile : High@L4.1
Format settings : CABAC / 2 Ref Frames
Format settings, CABAC : Yes
Format settings, ReFrames : 2 frames
Codec ID : V_MPEG4/ISO/AVC
Duration : 2 h 52 min
Bit rate : 9 282 kb/s
Width : 1 920 pixels
Height : 800 pixels
Display aspect ratio : 2.40:1
Frame rate mode : Constant
Frame rate : 23.976 (24000/1001) FPS
Color space : YUV
Chroma subsampling : 4:2:0
Bit depth : 8 bits
Scan type : Progressive
Bits/(Pixel*Frame) : 0.252
Stream size : 11.2 GiB (91%)
Title : The Great Escape (1963)-alE13
Writing library : x264 core 142
Encoding settings : cabac=1 / ref=1 / deblock=1:-1:-1 / analyse=0x3:0 / me=hex / subme=5 / psy=0 / mixed_ref=0 / me_range=16 / chroma_me=1 / trellis=0 / 8x8dct=1 / cqm=0 / deadzone=21,11 / fast_pskip=1 / chroma_qp_offset=0 / threads=4 / lookahead_threads=1 / sliced_threads=0 / nr=0 / decimate=1 / interlaced=0 / bluray_compat=0 / constrained_intra=0 / bframes=2 / b_pyramid=0 / b_adapt=1 / b_bias=0 / direct=1 / weightb=1 / open_gop=0 / weightp=0 / keyint=24 / keyint_min=13 / scenecut=40 / intra_refresh=0 / rc=abr / mbtree=0 / bitrate=9282 / ratetol=1.0 / qcomp=0.60 / qpmin=0 / qpmax=69 / qpstep=4 / ip_ratio=1.40 / pb_ratio=1.30 / aq=1:1.00
Default : Yes
Forced : No
Color range : Limited
Color primaries : BT.709
Transfer characteristics : BT.709
Matrix coefficients : BT.709

Audio #1
ID : 2
Format : AC-3
Format/Info : Audio Coding 3
Codec ID : A_AC3
Duration : 2 h 52 min
Bit rate mode : Constant
Bit rate : 448 kb/s
Channel(s) : 6 channels
Channel positions : Front: L C R, Side: L R, LFE
Sampling rate : 48.0 kHz
Frame rate : 31.250 FPS (1536 SPF)
Bit depth : 16 bits
Compression mode : Lossy
Stream size : 552 MiB (4%)
Title : The Great Escape (1963)-alE13
Language : English
Service kind : Complete Main
Default : No
Forced : No

Audio #2
ID : 3
Format : AC-3
Format/Info : Audio Coding 3
Codec ID : A_AC3
Duration : 2 h 52 min
Bit rate mode : Constant
Bit rate : 448 kb/s
Channel(s) : 6 channels
Channel positions : Front: L C R, Side: L R, LFE
Sampling rate : 44.1 kHz
Frame rate : 28.711 FPS (1536 SPF)
Bit depth : 16 bits
Compression mode : Lossy
Stream size : 552 MiB (4%)
Title : The Great Escape (1963)-alE13
Language : Polish
Service kind : Complete Main
Default : Yes
Forced : No

Text #1
ID : 4
Format : UTF-8
Codec ID : S_TEXT/UTF8
Codec ID/Info : UTF-8 Plain Text
Duration : 2 h 46 min
Bit rate : 42 b/s
Count of elements : 1398
Stream size : 51.4 KiB (0%)
Title : The Great Escape (1963)-alE13_Full
Language : English
Default : No
Forced : No

Text #2
ID : 5
Format : UTF-8
Codec ID : S_TEXT/UTF8
Codec ID/Info : UTF-8 Plain Text
Duration : 2 h 49 min
Bit rate : 44 b/s
Count of elements : 1483
Stream size : 54.6 KiB (0%)
Title : The Great Escape (1963)-alE13_SDH
Language : English
Default : No
Forced : No

Text #3
ID : 6
Format : UTF-8
Codec ID : S_TEXT/UTF8
Codec ID/Info : UTF-8 Plain Text
Duration : 2 h 50 min
Bit rate : 29 b/s
Count of elements : 1354
Stream size : 36.8 KiB (0%)
Title : The Great Escape (1963)-alE13
Language : Polish
Default : No
Forced : No

Menu
00:00:00.000 : en:Main Titles
00:02:37.991 : en:The Prisoners Arrive
00:10:43.309 : en:Escape Attempt #1
00:18:48.127 : en:The Blind Spot
00:22:11.371 : en:To The Cooler
00:25:59.766 : en:Barlett's Arrival
00:29:39.444 : en:The Objective
00:33:18.329 : en:The Escape Committee
00:36:45.244 : en:Forger & Scrounger
00:40:32.138 : en:Stealing Steel
00:42:23.707 : en:Tunneling Begins.
00:45:22.386 : en:Spot Inspection
00:46:56.814 : en:Hilts & Ives' Plan
00:56:45.193 : en:Come All Ye Faithful
00:58:07.192 : en:Tempting The Guard
01:10:20.049 : en:Dealing For A Camera
01:12:18.751 : en:Tunnel Collapse
01:17:51.541 : en:Independence Day
01:25:36.756 : en:Finding "Tom"
01:31:17.305 : en:Doubts Abut Blythe
01:44:44.569 : en:The Escape Begins
01:53:42.398 : en:20 Feet Short
02:03:10.132 : en:Discovered!
02:15:58.817 : en:The Chase
02:20:06.314 : en:Death At The Station
02:24:37.709 : en:Taking The Plane
02:28:40.661 : en:Crash Landing
02:31:14.397 : en:Motorcycle Pursuit
02:33:19.022 : en:The Resistance
02:40:29.620 : en:The Massacre
02:48:13.374 : en:Back To The Cooler
02:50:09.449 : en:End Titles

Lista plików Show/Hide [Pokaż/Ukryj]
Trackery
  • udp://tracker.coppersurfer.tk:6969/announce
  • http://tracker.torrentyorg.pl/announce
  • udp://tracker.leechers-paradise.org:6969/announce
  • udp://tracker.opentrackr.org:1337/announce
  • udp://p4p.arenabg.ch:1337/announce
  • http://tracker.devil-torrents.pl/announce
  • udp://tracker.ilibr.org:80/announce

<< Poprzednia      Następna >>
1 - 5

Dodał: Sidney83 Data: 2019-01-12 20:13:31

alE13 miałbyś moze film "Wojownik" z 2011r w takiej jakośći???...pozdrawiam

Dodał: alE13 Data: 2019-01-13 07:43:05

Jest na RARBG.

Dodał: wowa Data: 2019-01-13 12:10:08

Niebezpieczne związki (1988)

Kiss Daddy Goodnight (1987)

Jennifer 8 (1992)

Diagnoza zbrodni (1992)

Pracująca dziewczyna (1988)

Poślubiona mafii (1988)

Ucieczka gangstera (1994)

Siedem (1995)

witam, szukam tych pozycji w lepszej jakości i wadze,

(od 3-4G i więcej, 720p a lepiej 1080)

z góry dziękuję,

oczywiście że szukałem!, znalazłem kilka pozycji lecz.....

pozdr.......

Dodał: alE13 Data: 2019-01-13 12:14:52


Wiele wstawiłam z tych pozycji....w wadze ok. 8 giga, wstawiam tej wielkości pliki z osobnym audio DTS, aby nagrać taki plik na DVD9 wjakości do oglądania
Pozdrawiam.

Dodał: wowa Data: 2019-01-13 20:30:26

@Wiele wstawiłam

tak... ja  naprawdę to rozumiem, alE teraz dopiero rozumiem co to waga

pliu, jak już pisałem @oczywiście że szukałem!@

na tobie polegam ponieważ, wstawiasz dużo filmów z tamych, najlepszych  lat

pozdr.....

1 - 5
<< Poprzednia      Następna >>

Żaden z plików nie znajduje się na serwerze. Torrenty są własnością użytkowników. Administrator serwisu nie może ponieść konsekwencji za to co użytkownicy wstawiają, lub za to co czynią na stronie. Nie możesz używać tego serwisu do rozpowszechniania lub ściągania materiałów do których nie masz odpowiednich praw lub licencji. Użytkownicy odpowiedzialni są za przestrzeganie tych zasad.
Copyright © 2019 Ex-torrenty.org