HD / Wojenny
Asy Przestworzy/Aces High (1976)[Uncut][BRRip.1080p.x264 by alE13 AC3/DTS][Napisy PL/Eng][Eng]


Dodał: alE13
Data dodania:
2019-02-11 07:01:36
Rozmiar: 7.77 GB
Ostat. aktualizacja:
2019-02-11 23:37:46
Seedów: 12
Peerów: 32


Komentarze: 0

http://i.imgur.com/pzAwDFi.jpg

http://www.filmweb.pl/film/Asy+przestworzy-1976-31166
http://www.imdb.com/title/tt0075627/

reżyseria: Jack Gold
scenariusz: Howard Barker
gatunek: Dramat,Wojenny,Akcja
produkcja: Wielka Brytania
premiera: 19-05-1976
muzyka: Richard Hartley,Carlo Rustichelli
zdjęcia: Gerry Fisher
czas: 01:54:18

opis:

In WW1 the high casualty rate among the rookie pilots of the Royal Flying Corps puts an enormous
strain on the survivors.

Akcja rozgrywa się w czasie I wojny światowej. Croft (Peter Firth), młody brytyjski oficer, absolwent
szkoły pilotów, przybywa na front zachodni, by toczyć powietrzną walkę z Niemcami. Dowódcą elitarnej
eskadry jest cyniczny, zmęczony wojną Gresham (Malcolm McDowell), którego naiwny chłopak szczerze podziwia.
Niebawem bezsensowne i błędne decyzje sztabu sprawią, że wojna odciśnie na Croftcie okrutne, traumatyczne
piętno.

http://i.imgur.com/EB1ohHI.jpg
http://i.imgur.com/c5hzEZU.jpg
http://i.imgur.com/Xy1vPMi.jpg
http://i.imgur.com/z2HkqDw.jpg

obsada:

Malcolm McDowell, Christopher Plummer, Simon Ward

dane techniczne:

Aces High (1976)-alE13.mkv
Format : Matroska
Format version : Version 4 / Version 2
File size : 7.69 GiB
Duration : 1 h 54 min
Overall bit rate : 9 629 kb/s
Movie name : Aces High (1976)-alE13
Encoded date : UTC 2018-05-18 16:14:08
Writing application : mkvmerge v7.9.0 ('Birds') 64bit
Writing library : libebml v1.3.1 + libmatroska v1.4.2
Cover : Yes
Attachments : Cover.jpg

Video
ID : 1
Format : AVC
Format/Info : Advanced Video Codec
Format profile : High@L4.1
Format settings : CABAC / 2 Ref Frames
Format settings, CABAC : Yes
Format settings, ReFrames : 2 frames
Codec ID : V_MPEG4/ISO/AVC
Duration : 1 h 54 min
Bit rate : 7 309 kb/s
Width : 1 920 pixels
Height : 1 080 pixels
Display aspect ratio : 16:9
Frame rate mode : Constant
Frame rate : 23.976 (24000/1001) FPS
Color space : YUV
Chroma subsampling : 4:2:0
Bit depth : 8 bits
Scan type : Progressive
Bits/(Pixel*Frame) : 0.147
Stream size : 5.84 GiB (76%)
Title : Aces High (1976)-alE13
Writing library : x264 core 142
Default : Yes
Forced : No
Color range : Limited
Color primaries : BT.709
Transfer characteristics : BT.709
Matrix coefficients : BT.709

Audio #1
ID : 2
Format : AC-3
Format/Info : Audio Coding 3
Codec ID : A_AC3
Duration : 1 h 54 min
Bit rate mode : Constant
Bit rate : 384 kb/s
Channel(s) : 2 channels
Channel positions : Front: L R
Sampling rate : 48.0 kHz
Frame rate : 31.250 FPS (1536 SPF)
Bit depth : 16 bits
Compression mode : Lossy
Stream size : 314 MiB (4%)
Title : Aces High (1976)-alE13
Language : English
Service kind : Complete Main
Default : No
Forced : No

Audio #2
ID : 3
Format : DTS
Format/Info : Digital Theater Systems
Format profile : MA / Core
Codec ID : A_DTS
Duration : 1 h 54 min
Bit rate mode : Variable / Constant
Bit rate : 1 920 kb/s / 1 509 kb/s
Channel(s) : 2 channels
Channel positions : Front: L R
Sampling rate : 48.0 kHz
Frame rate : 93.750 FPS (512 SPF)
Bit depth : 24 bits
Compression mode : Lossless / Lossy
Stream size : 1.54 GiB (20%)
Title : Aces High (1976)-alE13_DTS
Language : English
Default : Yes
Forced : No

Text #1
ID : 4
Format : UTF-8
Codec ID : S_TEXT/UTF8
Codec ID/Info : UTF-8 Plain Text
Duration : 1 h 48 min
Bit rate : 28 b/s
Count of elements : 786
Stream size : 23.0 KiB (0%)
Title : Aces High (1976)-alE13
Language : Polish
Default : Yes
Forced : No

Text #2
ID : 5
Format : UTF-8
Codec ID : S_TEXT/UTF8
Codec ID/Info : UTF-8 Plain Text
Duration : 1 h 49 min
Bit rate : 36 b/s
Count of elements : 880
Stream size : 29.6 KiB (0%)
Title : Aces High (1976)-alE13
Language : English
Default : No
Forced : No

Lista plików Show/Hide [Pokaż/Ukryj]
Trackery
  • udp://tracker.coppersurfer.tk:6969/announce
  • udp://tracker.leechers-paradise.org:6969/announce
  • udp://tracker.opentrackr.org:1337/announce
  • http://tracker.torrentyorg.pl/announce
  • udp://tracker.ilibr.org:80/announce
  • http://tracker.devil-torrents.pl/announce
  • udp://p4p.arenabg.ch:1337/announce

Brak komentarzy!

Żaden z plików nie znajduje się na serwerze. Torrenty są własnością użytkowników. Administrator serwisu nie może ponieść konsekwencji za to co użytkownicy wstawiają, lub za to co czynią na stronie. Nie możesz używać tego serwisu do rozpowszechniania lub ściągania materiałów do których nie masz odpowiednich praw lub licencji. Użytkownicy odpowiedzialni są za przestrzeganie tych zasad.
Copyright © 2019 Ex-torrenty.org