Logo torrenty
HD / Sensacyjny
Man On Fire (1080p) (DTS) (60FPS) (Lektor i napisy PL)


Dodał: Uploader
Data dodania:
2019-04-15 22:39:08
Rozmiar: 18.80 GB
Ostat. aktualizacja:
2019-04-19 18:44:38
Seedów: 11
Peerów: 7


Komentarze: 0

...( Info )...

reżyseria: Tony Scott
scenariusz: Brian Helgeland
gatunek: Dramat/Sensacyjny
produkcja: USA/Wielka Brytania
premiera: 15 października 2004 (Polska) 21 kwietnia 2004 (świat)


...( Opis )...

Amerykanin John Creasy jest człowiekiem, którego nawet na jawie prześladują koszmary z przeszłości. Często zagląda do kieliszka, ma myśli samobójcze, gdyż poszukuje sensu swego życia. Tego szuka nawet w Biblii, ale ona nie daje mu odpowiedzi. Jego przyjaciel Rayburn znajduje mu w Meksyku posadę ochroniarza dziewczynki imieniem Pita Ramos, która jest córką bogatego Meksykanina Samuela i Amerykanki Lisy. W Meksyku od jakiegoś czasu coraz częściej zdarzają się porwania dla okupu i nie tylko. Ofiary rzadko kiedy wychodzą z tego cało - są okrutnie okaleczone lub po prostu bestialsko mordowane. Creasy ma za zadanie właśnie przed tym ochraniać Pitę. Na początku Creasy z trudem znosi obecność ciekawskiej i rezolutnej dziewczynki, która stara się z nim zaprzyjaźnić. Jednak Creasy uważa, że jej rodzice zapłacili mu za jej pilnowanie, a nie za coś więcej. Na szczęście dziewczynka ma ten dar, dzięki któremu udaje jej się jednak zaprzyjaźnić z ochroniarzem. Dzięki niej Creasy wreszcie odnajduje sens swojego życia, odstawia alkohol i zaczyna się wreszcie uśmiechać, cieszyć życiem. Niestety, pewnego dnia sielanka dobiega końca. Bandyci urządzają zasadzkę i pomimo bohaterskiej walki Creasy'ego - Pita zostaje porwana, a on w ciężkim stanie trafia do szpitala. Pomimo tego obiecuje sobie pomścić swoją małą przyjaciółkę.

...( Obsada )...

Denzel Washington jako John W. Creasy
Dakota Fanning jako Lupita Ramos
Marc Anthony jako Samuel Ramos
Radha Mitchell jako Lisa Ramos
Christopher Walken jako Paul Rayburn
Giancarlo Giannini jako Miguel Manzano
Rachel Ticotin jako Mariana Garcia Guerrero
Jesús Ochoa jako Victor Fuentes

...( Dane Techniczne )...

Video
ID : 3
Format : AVC
Format/Info : Advanced Video Codec
Format profile : High@L4.1
Format settings, CABAC : Yes
Format settings, ReFrames : 4 frames
Codec ID : V_MPEG4/ISO/AVC
Duration : 2 h 26 min
Bit rate : 14.0 Mb/s
Width : 1 920 pixels
Height : 800 pixels
Display aspect ratio : 2.40:1
Frame rate mode : Constant
Frame rate : 59.940 (60000/1001) FPS

Audio #1
ID : 1
Format : DTS
Format/Info : Digital Theater Systems
Format profile : MA / Core
Mode : 16
Format settings, Endianness : Big
Codec ID : A_DTS
Duration : 2 h 26 min
Bit rate mode : Variable / Constant
Bit rate : 3 978 kb/s / 1 509 kb/s
Channel(s) : 6 channels
Channel positions : Front: L C R, Side: L R, LFE
Sampling rate : 48.0 kHz
Frame rate : 93.750 FPS (512 spf)
Bit depth : 24 bits
Compression mode : Lossless / Lossy
Stream size : 4.06 GiB (22%)
Language : English
Default : No
Forced : No

Audio #2
ID : 2
Format : AC-3
Format/Info : Audio Coding 3
Mode extension : CM (complete main)
Format settings, Endianness : Big
Codec ID : A_AC3
Duration : 2 h 26 min
Bit rate mode : Constant
Bit rate : 448 kb/s
Channel(s) : 6 channels
Channel positions : Front: L C R, Side: L R, LFE
Sampling rate : 48.0 kHz
Frame rate : 31.250 FPS (1536 spf)
Bit depth : 16 bits
Compression mode : Lossy
Stream size : 468 MiB (2%)
Title : Polski
Language : Polish
Default : Yes
Forced : No

Lista plików Show/Hide [Pokaż/Ukryj]
Trackery
  • udp://tracker.opentrackr.org:1337/announce
  • udp://tracker.openbittorrent.com:80/announce
  • http://tracker.electro-torrent.pl/announce

Brak komentarzy!

Żaden z plików nie znajduje się na serwerze. Torrenty są własnością użytkowników. Administrator serwisu nie może ponieść konsekwencji za to co użytkownicy wstawiają, lub za to co czynią na stronie. Nie możesz używać tego serwisu do rozpowszechniania lub ściągania materiałów do których nie masz odpowiednich praw lub licencji. Użytkownicy odpowiedzialni są za przestrzeganie tych zasad.
Copyright © 2019 Ex-torrenty.org