Ex-torrenty.org
Bardzo ważna informacja
na stronie głównej dotycząca
rejestracji nowych użytkowników
x265 / Fantasy
Hellboy *2019* [INTERNAL] [2160p] [WEB] [X265] [DEFLATE] [ENG]


Dodał: Uploader
Data dodania:
2019-07-09 21:00:25
Rozmiar: 11.80 GB
Ostat. aktualizacja:
2019-08-02 14:30:01
Seedów: 160
Peerów: 26


Komentarze: 4

...( Info )...

Produkcja: USA, Wielka Brytania, Bułgaria
Gatunek: Fantasy, Akcja
Premiera: 12 kwietnia 2019 (Polska), 4 kwietnia 2019 (świat)
Reżyseria: Neil Marshall
Scenariusz: Andrew Cosby

...( Opis )...

Pojmana i unieszkodliwiona przed wiekami królowa czarownic powraca do naszego świata, by znów nieść śmierć i zniszczenie. Jej demoniczny plan zakłada sprowadzenie na Ziemię plag tak potężnych, że ludzkość nie ma z nimi żadnych szans. Tylko bohater o tak piekielnych korzeniach jak Hellboy jest w stanie stawić czoła zagrożeniu i podjąć walkę z czarownicą i jej armią. Jego szanse wzrosną jeszcze bardziej, gdy okaże się dziedzicem potęgi samego Króla Artura. Jednak nawet on w pojedynkę nie jest w stanie wygrać wojny z siłami zła. Zanim dojdzie do decydującego starcia Hellboy musi odzyskać swych dawnych sprzymierzeńców…

...( Obsada )...

★ David Harbour .... Hellboy
★ Milla Jovovich .... Nimue, królowa krwi
★ Ian McShane .... Profesor Bruttenholm
★ Sasha Lane .... Alice Monaghan
★ Daniel Dae Kim .... Ben Daimio
★ Thomas Haden Church .... Lobster Johnson
★ Alistair Petrie .... Lord Adam Glaren
★ Penelope Mitchell .... Ganeida

...( Dane Techniczne )...

Video
ID : 1
Format : HEVC
Format/Info : High Efficiency Video Coding
Format profile : Main 10@L5@High
Codec ID : V_MPEGH/ISO/HEVC
Duration : 2 h 1 min
Bit rate : 13.0 Mb/s
Width : 3 840 pixels
Height : 1 608 pixels
Original height : 2 160 pixels
Display aspect ratio : 16:9
Frame rate mode : Constant
Frame rate : 23.976 (23976/1000) FPS
Color space : YUV
Chroma subsampling : 4:2:0
Bit depth : 10 bits
Bits/(Pixel*Frame) : 0.088
Stream size : 11.0 GiB (93%)
Writing library : x265 3.0:[Linux][GCC 4.8.3][64 bit] 10bit
Encoding settings : cpuid=1111039 / frame-threads=1 / wpp / no-pmode / no-pme / no-psnr / no-ssim / log-level=2 / input-csp=1 / input-res=3840x2160 / interlace=0 / total-frames=0 / level-idc=50 / high-tier=1 / uhd-bd=0 / ref=4 / no-allow-non-conformance / repeat-headers / annexb / aud / hrd / info / hash=0 / no-temporal-layers / no-open-gop / min-keyint=96 / keyint=96 / gop-lookahead=0 / bframes=8 / b-adapt=2 / b-pyramid / bframe-bias=0 / rc-lookahead=25 / lookahead-slices=1 / scenecut=40 / radl=0 / no-splice / no-intra-refresh / ctu=64 / min-cu-size=8 / rect / no-amp / max-tu-size=32 / tu-inter-depth=1 / tu-intra-depth=1 / limit-tu=0 / rdoq-level=2 / dynamic-rd=0.00 / no-ssim-rd / signhide / no-tskip / nr-intra=0 / nr-inter=0 / no-constrained-intra / strong-intra-smoothing / max-merge=3 / limit-refs=3 / limit-modes / me=3 / subme=3 / merange=57 / temporal-mvp / weightp / no-weightb / no-analyze-src-pics / deblock=0:0 / sao / no-sao-non-deblock / rd=4 / no-early-skip / rskip / no-fast-intra / no-tskip-fast / no-cu-lossless / no-b-intra / no-splitrd-skip / rdpenalty=0 / psy-rd=2.00 / psy-rdoq=1.00 / no-rd-refine / no-lossless / cbqpoffs=0 / crqpoffs=0 / rc=abr / bitrate=13446 / qcomp=0.60 / qpstep=4 / stats-write=1 / stats-read=2 / cplxblur=20.0 / qblur=0.5 / vbv-maxrate=16135 / vbv-bufsize=40338 / vbv-init=0.9 / ipratio=1.40 / pbratio=1.30 / aq-mode=2 / aq-strength=1.00 / cutree / zone-count=0 / no-strict-cbr / qg-size=32 / no-rc-grain / qpmax=69 / qpmin=0 / no-const-vbv / sar=1 / overscan=0 / videoformat=5 / range=0 / colorprim=2 / transfer=2 / colormatrix=2 / chromaloc=0 / display-window=0 / max-cll=0,0 / min-luma=0 / max-luma=1023 / log2-max-poc-lsb=8 / vui-timing-info / vui-hrd-info / slices=1 / no-opt-qp-pps / no-opt-ref-list-length-pps / no-multi-pass-opt-rps / scenecut-bias=0.05 / no-opt-cu-delta-qp / no-aq-motion / no-hdr / no-hdr-opt / no-dhdr10-opt / no-idr-recovery-sei / analysis-reuse-level=5 / scale-factor=0 / refine-intra=0 / refine-inter=0 / refine-mv=0 / refine-ctu-distortion=0 / no-limit-sao / ctu-info=0 / no-lowpass-dct / refine-analysis-type=0 / copy-pic=1 / max-ausize-factor=1.0 / no-dynamic-refine / no-single-sei / no-hevc-aq / qp-adaptation-range=1.00
Language : English
Default : Yes
Forced : No

Audio
ID : 2
Format : E-AC-3
Format/Info : Enhanced AC-3
Commercial name : Dolby Digital Plus
Codec ID : A_EAC3
Duration : 2 h 1 min
Bit rate mode : Constant
Bit rate : 640 kb/s
Channel(s) : 6 channels
Channel layout : L R C LFE Ls Rs
Sampling rate : 48.0 kHz
Frame rate : 31.250 FPS (1536 SPF)
Compression mode : Lossy
Stream size : 554 MiB (5%)
Language : English
Service kind : Complete Main
Default : Yes
Forced : No

Lista plików Show/Hide [Pokaż/Ukryj]
Trackery
  • udp://9.rarbg.to:2730/announce
  • udp://9.rarbg.me:2750/announce
  • http://tracker.trackerfix.com:80/announce

Komentarze są widoczne dla osób zalogowanych!

Żaden z plików nie znajduje się na serwerze. Torrenty są własnością użytkowników. Administrator serwisu nie może ponieść konsekwencji za to co użytkownicy wstawiają, lub za to co czynią na stronie. Nie możesz używać tego serwisu do rozpowszechniania lub ściągania materiałów do których nie masz odpowiednich praw lub licencji. Użytkownicy odpowiedzialni są za przestrzeganie tych zasad.
Copyright © 2019 Ex-torrenty.org