Ex-torrenty.org
Bardzo ważna informacja
na stronie głównej dotycząca
rejestracji nowych użytkowników
TV / Fantasy
Ukryci: Pierworodny - Hidden: Förstfödd *2019* [S01E07-08] [1080p] [WEB-DL] [X264-J] [Lektor PL]


Dodał: Jordan83
Data dodania:
2020-03-26 06:57:10
Rozmiar: 2.99 GB
Ostat. aktualizacja:
2020-03-26 09:23:12
Seedów: 263
Peerów: 636


Komentarze: 0

INFO

Produkcja: Szwecja
Gatunek: Fantasy, Thriller
Reżyseria: Jonathan Sjöberg
Premiera: 2019-02-01

OPIS

Nic nie jest takie, jakim się wydaje. Otaczający nas świat jest pełen mrocznych sekretów i nadprzyrodzonych sił. Student prawa Jonas (August Wittgenstein) zatrudnia się jako budowlaniec, aby pomóc swojej chorej matce. Pewnego dnia mężczyzna zostaje wplątany w serie dziwnych wypadków. Od tego momentu jego życie zostaje wywrócone do góry nogami. Tymczasem, Viveca Eldth (Izabella Scorupco), była policjantka i wyszkolona boxerka, bada serię rytualnych morderstw na zlecenie tajnej organizacji. Serial nakręcony na podstawie powieści Filipa Alexandersona.

OBSADA

August Wittgenstein ... Jonas
Izabella Scorupco ... Izabella Scorupco
Anders Mossling ... Borg
Eric Ericson ... Schiller

DANE

Format : Matroska
Format version : Version 4 / Version 2
File size : 1.57 GiB
Duration : 44 min 41 s
Overall bit rate mode : Variable
Overall bit rate : 5 033 kb/s
Encoded date : UTC 2020-03-03 20:54:29
Writing application : mkvmerge v43.0.0 ('The Quartermaster') 64-bit
Writing library : libebml v1.3.10 + libmatroska v1.5.2

Video
ID : 1
Format : AVC
Format/Info : Advanced Video Codec
Format profile : High@L4.1
Format settings : CABAC / 2 Ref Frames
Format settings, CABAC : Yes
Format settings, ReFrames : 2 frames
Format settings, GOP : M=3, N=50
Codec ID : V_MPEG4/ISO/AVC
Duration : 44 min 41 s
Bit rate mode : Variable
Bit rate : 4 839 kb/s
Maximum bit rate : 7 200 kb/s
Width : 1 920 pixels
Height : 1 080 pixels
Display aspect ratio : 16:9
Frame rate mode : Constant
Frame rate : 25.000 FPS
Color space : YUV
Chroma subsampling : 4:2:0
Bit depth : 8 bits
Scan type : Progressive
Bits/(Pixel*Frame) : 0.093
Stream size : 1.51 GiB (96%)
Default : Yes
Forced : No

Audio
ID : 2
Format : AC-3
Format/Info : Audio Coding 3
Codec ID : A_AC3
Duration : 44 min 41 s
Bit rate mode : Constant
Bit rate : 192 kb/s
Channel(s) : 2 channels
Channel positions : Front: L R
Sampling rate : 48.0 kHz
Frame rate : 31.250 FPS (1536 SPF)
Bit depth : 16 bits
Compression mode : Lossy
Stream size : 61.4 MiB (4%)
Language : Polish
Service kind : Complete Main
Default : Yes
Forced : No

Lista plików Show/Hide [Pokaż/Ukryj]
Trackery
  • udp://tracker.coppersurfer.tk:6969/announce
  • udp://tracker.pirateparty.gr:6969/announce
  • udp://tracker.tiny-vps.com:6969/announce
  • udp://tracker.opentrackr.org:1337/announce
  • udp://opentrackr.org:1337/announce
  • udp://retracker.lanta-net.ru:2710/announce
  • udp://9.rarbg.to:2710/announce
  • udp://9.rarbg.me:2780/announce
  • udp://tracker.torrent.eu.org:451/announce
  • http://mail2.zelenaya.net:80/announce
  • udp://exodus.desync.com:6969/announce
  • udp://explodie.org:6969/announce
  • udp://tracker.filemail.com:6969/announce
  • udp://denis.stalker.upeer.me:6969/announce
  • udp://tracker.internetwarriors.net:1337/announce

Komentarze są widoczne dla osób zalogowanych!

Żaden z plików nie znajduje się na serwerze. Torrenty są własnością użytkowników. Administrator serwisu nie może ponieść konsekwencji za to co użytkownicy wstawiają, lub za to co czynią na stronie. Nie możesz używać tego serwisu do rozpowszechniania lub ściągania materiałów do których nie masz odpowiednich praw lub licencji. Użytkownicy odpowiedzialni są za przestrzeganie tych zasad.
Copyright © 2020 Ex-torrenty.org