Ex-torrenty.org
Bardzo ważna informacja
na stronie głównej dotycząca
rejestracji nowych użytkowników
TV / Dramat
21 Thunder [S01] [M720p] [WEB] [X264] [None] [Lektor PL]


Dodał: Jordan83
Data dodania:
2020-03-26 10:37:29
Rozmiar: 3.24 GB
Ostat. aktualizacja:
2020-03-26 16:24:16
Seedów: 90
Peerów: 98


Komentarze: 0

F_INFO

Produkcja: Kanada
Gatunek: Dramat, Sportowy
Twórcy: Riley Adams, Kenneth Hirsch
Platforma: Netflix
Premiera: 31.07.2017

F_OPIS

Piłkarze i trenerzy montrealskiej drużyny marzą o sławie. Jednocześnie próbują zapanować nad pozaboiskowym życiem pełnym pasji i miłości, ale też przemocy i strachu.

F_OBSADA

https://i.postimg.cc/Gpq1c6qP/Screenshot-1.png

F_DANE

Format : MPEG-4
Format profile : Base Media
Codec ID : isom (isom/iso2/avc1/mp41)
File size : 424 MiB
Duration : 44 min 25 s
Overall bit rate mode : Variable
Overall bit rate : 1 333 kb/s
Writing application : Lavf58.0.100

Video
ID : 1
Format : AVC
Format/Info : Advanced Video Codec
Format profile : High@L3.1
Format settings : CABAC / 5 Ref Frames
Format settings, CABAC : Yes
Format settings, ReFrames : 5 frames
Codec ID : avc1
Codec ID/Info : Advanced Video Coding
Duration : 44 min 24 s
Bit rate : 1 216 kb/s
Width : 1 280 pixels
Height : 720 pixels
Display aspect ratio : 16:9
Frame rate mode : Variable
Frame rate : 23.976 (24000/1001) FPS
Minimum frame rate : 23.810 FPS
Maximum frame rate : 24.390 FPS
Color space : YUV
Chroma subsampling : 4:2:0
Bit depth : 8 bits
Scan type : Progressive
Bits/(Pixel*Frame) : 0.055
Stream size : 381 MiB (90%)
Writing library : x264 core 148 r2643 5c65704
Encoding settings : cabac=1 / ref=5 / deblock=1:0:0 / analyse=0x3:0x113 / me=hex / subme=7 / psy=1 / psy_rd=1.00:0.00 / mixed_ref=1 / me_range=16 / chroma_me=1 / trellis=1 / 8x8dct=1 / cqm=0 / deadzone=21,11 / fast_pskip=1 / chroma_qp_offset=-2 / threads=8 / lookahead_threads=8 / sliced_threads=1 / slices=8 / nr=0 / decimate=1 / interlaced=0 / bluray_compat=0 / constrained_intra=0 / bframes=0 / weightp=2 / keyint=250 / keyint_min=23 / scenecut=40 / intra_refresh=0 / rc=abr / mbtree=0 / bitrate=1216 / ratetol=1.0 / qcomp=0.60 / qpmin=0 / qpmax=69 / qpstep=4 / ip_ratio=1.40 / aq=1:1.00

Audio
ID : 2
Format : AAC
Format/Info : Advanced Audio Codec
Format profile : LC
Codec ID : mp4a-40-2
Duration : 44 min 25 s
Bit rate mode : Variable
Bit rate : 129 kb/s
Channel(s) : 2 channels
Channel positions : Front: L R
Sampling rate : 48.0 kHz
Frame rate : 46.875 FPS (1024 SPF)
Compression mode : Lossy
Stream size : 40.7 MiB (10%)
Default : Yes
Alternate group : 1

Lista plików Show/Hide [Pokaż/Ukryj]
Trackery
  • udp://9.rarbg.to:2710/announce
  • udp://tracker.opentrackr.org:1337/announce
  • udp://opentrackr.org:1337/announce
  • udp://tracker.tiny-vps.com:6969/announce
  • udp://retracker.lanta-net.ru:2710/announce
  • udp://tracker.torrent.eu.org:451/announce
  • udp://exodus.desync.com:6969/announce
  • http://mail2.zelenaya.net:80/announce
  • udp://tracker.coppersurfer.tk:6969/announce
  • udp://explodie.org:6969/announce
  • udp://tracker.pirateparty.gr:6969/announce
  • udp://tracker.filemail.com:6969/announce
  • udp://denis.stalker.upeer.me:6969/announce
  • udp://tracker.internetwarriors.net:1337/announce
  • udp://9.rarbg.me:2780/announce

Komentarze są widoczne dla osób zalogowanych!

Żaden z plików nie znajduje się na serwerze. Torrenty są własnością użytkowników. Administrator serwisu nie może ponieść konsekwencji za to co użytkownicy wstawiają, lub za to co czynią na stronie. Nie możesz używać tego serwisu do rozpowszechniania lub ściągania materiałów do których nie masz odpowiednich praw lub licencji. Użytkownicy odpowiedzialni są za przestrzeganie tych zasad.
Copyright © 2020 Ex-torrenty.org