Ex-torrenty.org
Bardzo ważna informacja
na stronie głównej dotycząca
rejestracji nowych użytkowników
HD / Komedia
Dorwać Gunthera - Killing Gunther *2017* [1080p] [DTS.MASTER.HD] [NAPISY PL]


Dodał: marek24
Data dodania:
2020-09-19 07:36:01
Rozmiar: 16.89 GB
Ostat. aktualizacja:
2020-09-21 17:52:37
Seedów: 8
Peerów: 4


Komentarze: 0

...( Info )...

produkcja: USA
premiera: 27 kwietnia 2018 (Polska) 22 września 2017 (świat)
reżyseria: Taran Killam
scenariusz: Taran Killam
gatunek: Komedia , Akcja

...( Opis )...

Komedia dziejąca się w środowisku płatnych morderców. Grupa młodych, niedoświadczonych, ale zapalonych zabójców z bronią w ręku zmusza filmowców, żeby nagrali, jak pozbywają się legendarnego w tym zawodzie Gunthera (w tej roli Arnold Schwarzenegger), ale stary wyga nie pozwala się przechytrzyć. Gunther postanawia uczynić życie młodych wilczków piekłem na ziemi. Tak oto myśliwi stają się zwierzyną łowną, a film opowieścią o tym, kto prześcignie kogo.

...( Obsada )...

Arnold Schwarzenegger...Robert "Gunther" Bendik
Taran Killam...Blake
Bobby Moynihan...Donnie
Hannah Simone...Sanaa
Cobie Smulders...Lisa McCalla
Allison Tolman...Mia
Ryan Gaul...Barold
Aaron Yoo...Yong

...( Dane Techniczne )...

ID : 1
Format : AVC
Format/Info : Advanced Video Codec
Format profile : High@L4.1
Format settings : CABAC / 4 Ref Frames
Format settings, CABAC : Yes
Format settings, Reference : 4 frames
Codec ID : V_MPEG4/ISO/AVC
Duration : 1 h 33 min
Bit rate mode : Variable
Maximum bit rate : 35.0 Mb/s
Width : 1 920 pixels
Height : 1 080 pixels
Display aspect ratio : 16:9
Frame rate mode : Constant
Frame rate : 23.976 (24000/1001) FPS
Color space : YUV
Chroma subsampling : 4:2:0
Bit depth : 8 bits
Scan type : Progressive
Title : Убить Гюнтера
Language : English
Default : Yes
Forced : No
Duration_Source : General_Duration

Audio #1
ID : 2
Format : AC-3
Format/Info : Audio Coding 3
Commercial name : Dolby Digital
Codec ID : A_AC3
Duration : 1 h 33 min
Bit rate mode : Constant
Bit rate : 384 kb/s
Channel(s) : 6 channels
Channel layout : L R C LFE Ls Rs
Sampling rate : 48.0 kHz
Frame rate : 31.250 FPS (1536 SPF)
Compression mode : Lossy
Stream size : 257 MiB (1%)
Title : Профессиональный многоголосый | iTunes
Language : Russian
Service kind : Complete Main
Default : Yes
Forced : No
Duration_Source : General_Duration

Audio #2
ID : 3
Format : AC-3
Format/Info : Audio Coding 3
Commercial name : Dolby Digital
Codec ID : A_AC3
Duration : 1 h 33 min
Bit rate mode : Constant
Bit rate : 448 kb/s
Channel(s) : 6 channels
Channel layout : L R C LFE Ls Rs
Sampling rate : 48.0 kHz
Frame rate : 31.250 FPS (1536 SPF)
Compression mode : Lossy
Stream size : 299 MiB (2%)
Title : Любительский многоголосый | MUZOBOZ
Language : Russian
Service kind : Complete Main
Default : No
Forced : No
Duration_Source : General_Duration

Audio #3
ID : 4
Format : DTS XLL
Format/Info : Digital Theater Systems
Commercial name : DTS-HD Master Audio
Codec ID : A_DTS
Duration : 1 h 33 min
Bit rate mode : Variable
Channel(s) : 6 channels
Channel layout : C L R Ls Rs LFE
Sampling rate : 48.0 kHz
Frame rate : 93.750 FPS (512 SPF)
Bit depth : 24 bits
Compression mode : Lossless
Title : Original
Language : English
Default : No
Forced : No
Duration_Source : General_Duration

Subtitle: English
Subtitle: Polish

Lista plików Show/Hide [Pokaż/Ukryj]
Trackery
  • udp://tracker.opentrackr.org:1337/announce
  • udp://tracker.ds.is:6969/announce
  • udp://tracker.nyaa.uk:6969/announce
  • udp://9.rarbg.me:2780/announce
  • udp://9.rarbg.to:2710/announce
  • http://mail2.zelenaya.net/announce
  • udp://tracker.coppersurfer.tk:6969/announce
  • udp://tracker.leechers-paradise.org:6969/announce
  • udp://9.rarbg.me:2710/announce
  • udp://9.rarbg.com:2710/announce
  • http://tracker.yoshi210.com:6969/announce
  • https://tracker.vectahosting.eu:2053/announce

Komentarze są widoczne dla osób zalogowanych!

Żaden z plików nie znajduje się na serwerze. Torrenty są własnością użytkowników. Administrator serwisu nie może ponieść konsekwencji za to co użytkownicy wstawiają, lub za to co czynią na stronie. Nie możesz używać tego serwisu do rozpowszechniania lub ściągania materiałów do których nie masz odpowiednich praw lub licencji. Użytkownicy odpowiedzialni są za przestrzeganie tych zasad.
Copyright © 2020 Ex-torrenty.org