Ex-torrenty.org
Bardzo ważna informacja
na stronie głównej dotycząca
rejestracji nowych użytkowników
x265 / Gangsterski
The Godfather Part II (1974) The Coppola Restoration [BDRip 1080p x265 10bit HEVC] [MultiSub - Lektor PL] [elladajarek]


Dodał: elladajarek
Data dodania:
2020-11-21 10:44:41
Rozmiar: 6.34 GB
Ostat. aktualizacja:
2020-11-23 22:16:40
Seedów: 26
Peerów: 51


Komentarze: 0

Produkcja: USA
Gatunek: Dramat, Gangsterski
Premiera: 12 grudnia 1974 (świat)
Reżyseria: Francis Ford Coppola
Scenariusz: Mario Puzo, Francis Ford Coppola
Czas trwania: 03:22:36

Kontynuacja słynnego filmu o życiu włoskiej rodziny gangsterskiej. Po śmierci Vita Corleone (Marlon Brando) jego miejsce zajmuje syn Michael (Al Pacino), który - uciekając do intryg i morderstw - zapewnia klanowi dominację. Nie ma on jednak tak wielkiej charyzmy jak ojciec. Jest jedynie chłodno kalkulującym, wyrachowanym graczem. Mimo dużych ambicji przywódczych nie potrafi utrzymać jedności w rodzinie i zapobiec jej kryzysowi.

Obsada:

★ Al Pacino .... Michael Corleone
★ Robert Duvall .... Tom Hagen
★ Diane Keaton .... Kay Adams-Corleone
★ Robert De Niro .... Młody Vito Corleone
★ John Cazale .... Frederico "Fredo" Corleone
★ Talia Shire .... Constanzia "Connie" Corleone
★ Lee Strasberg .... Hyman Roth
★ Michael V. Gazzo .... Frankie Pentangeli

Dane Techniczne:

Format : Matroska
Format version : Version 4
File size : 6.34 GiB
Duration : 3 h 22 min
Overall bit rate : 4 489 kb/s
Writing application : mkvmerge v51.0.0 ('I Wish') 64-bit
Writing library : libebml v1.4.0 + libmatroska v1.6.2

Video
ID : 1
Format : HEVC
Format/Info : High Efficiency Video Coding
Format profile : Main 10@L4@Main
Codec ID : V_MPEGH/ISO/HEVC
Duration : 3 h 22 min
Bit rate : 3 207 kb/s
Width : 1 920 pixels
Height : 1 080 pixels
Display aspect ratio : 16:9
Frame rate mode : Constant
Frame rate : 23.976 (24000/1001) FPS
Color space : YUV
Chroma subsampling : 4:2:0
Bit depth : 10 bits
Bits/(Pixel*Frame) : 0.065
Stream size : 4.53 GiB (71%)
Default : Yes
Forced : No
Color range : Limited
Color primaries : BT.709
Transfer characteristics : BT.709
Matrix coefficients : BT.709

Audio #1
ID : 2
Format : AC-3
Format/Info : Audio Coding 3
Commercial name : Dolby Digital
Codec ID : A_AC3
Duration : 3 h 22 min
Bit rate mode : Constant
Bit rate : 640 kb/s
Channel(s) : 6 channels
Channel layout : L R C LFE Ls Rs
Sampling rate : 48.0 kHz
Frame rate : 31.250 FPS (1536 SPF)
Compression mode : Lossy
Stream size : 925 MiB (14%)
Language : Polish
Service kind : Complete Main
Default : Yes
Forced : No

Audio #2
ID : 3
Format : AC-3
Format/Info : Audio Coding 3
Commercial name : Dolby Digital
Codec ID : A_AC3
Duration : 3 h 22 min
Bit rate mode : Constant
Bit rate : 640 kb/s
Channel(s) : 6 channels
Channel layout : L R C LFE Ls Rs
Sampling rate : 48.0 kHz
Frame rate : 31.250 FPS (1536 SPF)
Compression mode : Lossy
Stream size : 925 MiB (14%)
Language : English
Service kind : Complete Main
Default : No
Forced : No

Text #1
ID : 4
Format : UTF-8
Codec ID : S_TEXT/UTF8
Codec ID/Info : UTF-8 Plain Text
Duration : 3 h 14 min
Bit rate : 35 b/s
Count of elements : 1502
Stream size : 50.2 KiB (0%)
Language : Polish
Default : Yes
Forced : No

Text #2
ID : 5
Format : UTF-8
Codec ID : S_TEXT/UTF8
Codec ID/Info : UTF-8 Plain Text
Duration : 3 h 13 min
Bit rate : 41 b/s
Count of elements : 1498
Stream size : 59.3 KiB (0%)
Title : Eng
Language : English
Default : No
Forced : No

Menu
00:00:00.000 : en:Chapter 01
00:05:00.000 : en:Chapter 02
00:10:00.000 : en:Chapter 03
00:15:00.000 : en:Chapter 04
00:20:00.000 : en:Chapter 05
00:25:00.000 : en:Chapter 06
00:30:00.000 : en:Chapter 07
00:35:00.000 : en:Chapter 08
00:40:00.000 : en:Chapter 09
00:45:00.000 : en:Chapter 10
00:50:00.000 : en:Chapter 11
00:55:00.000 : en:Chapter 12
01:00:00.000 : en:Chapter 13
01:05:00.000 : en:Chapter 14
01:10:00.000 : en:Chapter 15
01:15:00.000 : en:Chapter 16
01:20:00.000 : en:Chapter 17
01:25:00.000 : en:Chapter 18
01:30:00.000 : en:Chapter 19
01:35:00.000 : en:Chapter 20
01:40:00.000 : en:Chapter 21
01:45:00.000 : en:Chapter 22
01:50:00.000 : en:Chapter 23
01:55:00.000 : en:Chapter 24
02:00:00.000 : en:Chapter 25
02:05:00.000 : en:Chapter 26
02:10:00.000 : en:Chapter 27
02:15:00.000 : en:Chapter 28
02:20:00.000 : en:Chapter 29
02:25:00.000 : en:Chapter 30
02:30:00.000 : en:Chapter 31
02:35:00.000 : en:Chapter 32
02:40:00.000 : en:Chapter 33
02:45:00.000 : en:Chapter 34
02:50:00.000 : en:Chapter 35
02:55:00.000 : en:Chapter 36
03:00:00.000 : en:Chapter 37
03:05:00.000 : en:Chapter 38
03:10:00.000 : en:Chapter 39
03:15:00.000 : en:Chapter 40
03:20:00.000 : en:Chapter 41

Lista plików Show/Hide [Pokaż/Ukryj]
Trackery
  • udp://tracker.opentrackr.org:1337/announce
  • udp://exodus.desync.com:6969/announce
  • udp://tracker.torrent.eu.org:451/announce
  • udp://tracker.internetwarriors.net:1337/announce
  • udp://open.demonii.si:1337/announce
  • udp://tracker.cyberia.is:6969/announce
  • udp://ipv4.tracker.harry.lu:80/announce
  • udp://explodie.org:6969/announce
  • udp://tracker.leechers-paradise.org:6969/announce
  • udp://tracker.iamhansen.xyz:2000/announce
  • udp://9.rarbg.me:2710/announce
  • udp://9.rarbg.to:2710/announce
  • udp://denis.stalker.upeer.me:6969/announce
  • udp://tracker.coppersurfer.tk:6969/announce
  • udp://tracker.pirateparty.gr:6969/announce

Komentarze są widoczne dla osób zalogowanych!

Żaden z plików nie znajduje się na serwerze. Torrenty są własnością użytkowników. Administrator serwisu nie może ponieść konsekwencji za to co użytkownicy wstawiają, lub za to co czynią na stronie. Nie możesz używać tego serwisu do rozpowszechniania lub ściągania materiałów do których nie masz odpowiednich praw lub licencji. Użytkownicy odpowiedzialni są za przestrzeganie tych zasad.
Copyright © 2021 Ex-torrenty.org