Ex-torrenty.org
Bardzo ważna informacja
na stronie głównej dotycząca
rejestracji nowych użytkowników
XviD/DivX / Katastroficzny
Volcano (wulkan - 1997) [Dvd-Rip] [DjRobo38] [ENGl. + Napisy PL]


Dodał: xdktkmhc
Data dodania:
2021-02-25 15:26:44
Rozmiar: 774.20 MB
Ostat. aktualizacja:
2021-06-13 11:41:33
Seedów: 0
Peerów: 0


Komentarze: 0

..::(Info)::..

reżyseria: Mick Jackson
scenariusz: Billy Ray, Jerome Armstrong
gatunek: Katastroficzny
produkcja: USA
premiera: 25 kwietnia 1997 (świat)
oceny: FilmWeb: 5,9 (22.348 ocen), IMDb: 5,5/10 (72.196 głosów), fdb: 6,2 (80 ocen)
nominacje: 1998 "Złota Malina" - Film niebezpieczny dla zdrowia i życia publicznego.
boxoffice: 122.823.468 $ na świecie, budżet: 90.000.000 $

..::(Opis)::..

Stacje geologiczne rejestrują w Los Angeles wzmożoną aktywność tektoniczną. Wszyscy obawiają się trzęsienia ziemi. Tymczasem to inna katastrofa zagraża Miastu Aniołów - erupcja wulkanu! Śmiercionośny grad kul ognia spada na mieszkańców, z drżącej ziemi wydobywają się opary siarki, lawa zalewa ulice. Geolodzy rejestrują przejawy wzmożonej aktywności tektonicznej. W oparach siarki ginie kilku robotników, gwałtownie wzrasta też temperatura wody w jeziorze. Burmistrz powołuje sztab kryzysowy. Dowodzi nim doskonały specjalista do zwalczania kataklizmów Mike Roark (Tommy Lee Jones - Oscar za kreacje w filmie "Ścigany"). Przyszłość metropolii leży w jego rękach... Niezwykle widowiskowy film katastroficzny, w którym nieustające napięcie potęgują wspaniałe efekty specjalne.

..::(O Filmie)::..

https://www.filmweb.pl/film/Wulkan-1997-563
https://www.imdb.com/title/tt0120461/?ref_=nv_sr_srsg_0
https://fdb.pl/film/3088-wulkan
Trailer:
https://www.youtube.com/watch?v=MDN18yHEv2I

..::(Obsada)::..

Tommy Lee Jones ... Mike Roark
Anne Heche ... Dr. Amy Barnes
Gaby Hoffmann ... Kelly Roark
Don Cheadle ... Emmit Reese
Jacqueline Kim ... Dr. Jaye Calder
Keith David ... Police Lieutenant Ed Fox
John Corbett ... Norman Calder
Michael Rispoli ... Gator Harris
John Carroll Lynch ... Stan Olber
Marcello Thedford ... Kevin
Laurie Lathem ... Rachel
Bert Kramer ... L.A. Fire Chief
Bo Eason ... Bud McVie

..::(Dane Techniczne)::..

General
Format : AVI
Format/INFO : Audio Video Interleave
File size : 700 MiB
Duration : 1 h 39 min
Overall bit rate mode : Variable
Overall bit rate : 982 kb/s
Writing application : VirtualDubMod 1.5.4.1 (build 2178/release)
Writing library : VirtualDubMod build 2178/release
Video #0
ID : 0
Format : MPEG-4 Visual
Format profile : Advanced Simple@L5
Format settings : BVOP1 / Custom Matrix
Format settings, BVOP : 1
Format settings, QPel : No
Format settings, GMC : No warppoints
Format settings, Matrix : Custom
Codec ID : XVID
Codec ID/Hint : XviD
Duration : 1 h 39 min
Bit rate : 855 kb/s
Width : 576 pixels
Height : 304 pixels
Display aspect ratio : 1.895
Frame rate : 25.000 FPS
Color space : YUV
Chroma subsampling : 4:2:0
Bit depth : 8 bits
Scan type : Progressive
Compression mode : Lossy
Bits/(Pixel*Frame) : 0.195
Stream size : 609 MiB (87%)
Writing library : XviD 1.2.0.dev47 (UTC 2006-11-01)
Audio #1 - Angielskie
ID : 1
Format : MPEG Audio
Format version : Version 1
Format profile : Layer 3
Format settings : Joint stereo
Codec ID : 55
Codec ID/Hint : MP3
Duration : 1 h 39 min
Bit rate mode : Variable
Bit rate : 115 kb/s
Nominal bit rate : 128 kb/s
Channel(s) : 2 channels
Sampling rate : 48.0 kHz
Frame rate : 41.667 FPS (1152 SPF)
Compression mode : Lossy
Stream size : 81.8 MiB (12%)
Alignment : Aligned on interleaves
Interleave, duration : 24 ms (0.60 video frame)
Interleave, preload duration : 565 ms
Writing library : LAME3.97
Encoding settings : -m j -V 4 -q 2 -lowpass 17 --abr 128

Lista plików Show/Hide [Pokaż/Ukryj]
Trackery
  • http://tpb.tracker.thepiratebay.org:80/announce
  • http://www.sumotracker.com/announce
  • http://vip.tracker.thepiratebay.org:80/announce
  • http://vip.tracker.thepiratebay.org/announce
  • http://open.tracker.thepiratebay.org:80/announce
  • http://a.tracker.thepiratebay.org:80/announce
  • http://pirates.sumotracker.com/announce
  • http://alt.sextorrent.to:2710/announce
  • http://tracker.prq.to:80/announce
  • http://denis.stalker.h3q.com:6969/announce

Komentarze są widoczne dla osób zalogowanych!

Żaden z plików nie znajduje się na serwerze. Torrenty są własnością użytkowników. Administrator serwisu nie może ponieść konsekwencji za to co użytkownicy wstawiają, lub za to co czynią na stronie. Nie możesz używać tego serwisu do rozpowszechniania lub ściągania materiałów do których nie masz odpowiednich praw lub licencji. Użytkownicy odpowiedzialni są za przestrzeganie tych zasad.
Copyright © 2021 Ex-torrenty.org