XviD/DivX / Przygodowy
Ready Player One *2018* [720p] [WEB-DL] [XviD] [AC3] [FGT] [ENG]


Dodał: Uploader
Data dodania:
2018-06-18 19:00:07
Rozmiar: 4.10 GB
Ostat. aktualizacja:
2018-07-12 19:17:46
Seedów: 298
Peerów: 58


Komentarze: 3

...( Info )...

Produkcja: USA
Gatunek: Przygodowy, Akcja, Sci-Fi
Premiera: 6 kwietnia 2018 (Polska), 11 marca 2018 (świat)
Reżyseria: Steven Spielberg
Scenariusz: Ernest Cline, Zak Penn

...( Opis )...

Rzeczywistość 2045 roku nie nastraja optymistycznie.  Świat znajduje się na skraju upadku i pogrążenia w chaosie. Wade Watts (Tye Sheridan) czuje, że żyje, tylko gdy ucieka do OASIS — wirtualnego uniwersum, w którym większość ludzi spędza całe dnie.  W OASIS można podróżować, przeżywać przygody i być kimkolwiek się zapragnie. Jedynym ograniczeniem jest własna wyobraźnia. Ekscentryczny geniusz James Halliday (Mark Rylance), który stworzył OASIS, szuka godnego następcy. Organizuje trzyetapowy konkurs, w którym nagrodą jest olbrzymia fortuna i całkowita kontrola nad uniwersum.  Wade i jego przyjaciele z "Wielkiej Piątki" podejmują wyzwanie polegające na szukaniu skarbów w zakrzywionej rzeczywistości. W fantastycznym świecie — pełnym niespodzianek, ale i niebezpieczeństw — czeka ich zadanie ważniejsze niż sam konkurs. Muszą ocalić OASIS.

...( Obsada )...

★ Tye Sheridan .... Wade Owen Watts / Parzival
★ Olivia Cooke .... Samantha Evelyn Cook / Art3mis
★ Ben Mendelsohn .... Nolan Sorrento
★ Lena Waithe .... Aech
★ T.J. Miller .... i-R0k
★ Simon Pegg .... Ogden Morrow
★ Mark Rylance .... Anorak / Halliday
★ Philip Zhao .... Sho

...( Dane Techniczne )...

Video
ID : 0
Format : MPEG-4 Visual
Format profile : Simple@L5
Format settings, BVOP : No
Format settings, QPel : No
Format settings, GMC : No warppoints
Format settings, Matrix : Default (H.263)
Codec ID : XVID
Codec ID/Hint : XviD
Duration : 2 h 19 min
Bit rate : 3 798 kb/s
Width : 1 280 pixels
Height : 532 pixels
Display aspect ratio : 2.40:1
Frame rate : 23.976 (24000/1001) FPS
Color space : YUV
Chroma subsampling : 4:2:0
Bit depth : 8 bits
Scan type : Progressive
Compression mode : Lossy
Bits/(Pixel*Frame) : 0.233
Stream size : 3.71 GiB (91%)
Writing library : Lavc58.1.100

Audio
ID : 1
Format : AC-3
Format/Info : Audio Coding 3
Codec ID : 2000
Duration : 2 h 19 min
Bit rate mode : Constant
Bit rate : 384 kb/s
Channel(s) : 6 channels
Channel positions : Front: L C R, Side: L R, LFE
Sampling rate : 48.0 kHz
Frame rate : 31.250 FPS (1536 SPF)
Bit depth : 16 bits
Compression mode : Lossy
Stream size : 384 MiB (9%)
Alignment : Aligned on interleaves
Interleave, duration : 42 ms (1.00 video frame)
Interleave, preload duration : 512 ms
Service kind : Complete Main

Lista plików Show/Hide [Pokaż/Ukryj]
Trackery
  • udp://9.rarbg.to:2710/announce
  • udp://9.rarbg.me:2710/announce
  • http://tracker.trackerfix.com:80/announce

<< Poprzednia      Następna >>
1 - 3

Dodał: kowal30 Data: 2018-06-19 12:22:21

po co wstawiasz angielską wersję jak już są z lektorem co za pajac ...

Dodał: bp Data: 2018-06-19 21:46:46

bo są ludzie którzy cenią brak lektora

Dodał: mrrobot Data: 2018-06-26 20:36:07

kowal30 - sam pajac jeteś

1 - 3
<< Poprzednia      Następna >>

Żaden z plików nie znajduje się na serwerze. Torrenty są własnością użytkowników. Administrator serwisu nie może ponieść konsekwencji za to co użytkownicy wstawiają, lub za to co czynią na stronie. Nie możesz używać tego serwisu do rozpowszechniania lub ściągania materiałów do których nie masz odpowiednich praw lub licencji. Użytkownicy odpowiedzialni są za przestrzeganie tych zasad.
Copyright © 2018 Ex-torrenty.org