Ex-torrenty.org
x264 / Fantasy
Scyta - Skif [2017] [720p] [BDRIP] [AC3.5.1] [x264] [napisy PL]


Dodał: Uploader
Data dodania:
2018-06-30 18:25:12
Rozmiar: 1.13 GB
Ostat. aktualizacja:
2021-08-15 20:50:51
Seedów: 0
Peerów: 0


Komentarze: 0

...( Info )...

tyluł :
Scyta
Skif
Скиф
:
reżyseria: Dzhanik Fayziev, Ivan Shurkhovetskiy
scenariusz: Dmitriy Paltsev, Dmitriy Raevskiy
gatunek: fantasy/Dramat
produkcja: Rosja
premiera: 2017 (świat)
:

...( Opis )...

Po setkach lat panowania pomiędzy Dunajem i Morzem Kaspijskim z historycznej sceny Europy schodzi ostatnie plemię scytyjskie...

...( Obsada )...

Aleksey Faddeev ... Lyutobor
Aleksandr Kuznetsov ... Kunitsa (aka marten) (as Alexander Kuznetsov)
Yuriy Tsurilo ... Oleg Svyatoslavovich, prince of Tmutarakan
Izmaylova Vasilisa ... Tatyana, Lyutobor's wie

...( Dane Techniczne )...

Video
ID : 1
Format : AVC
Format/Info : Advanced Video Codec
Format profile : [email protected]
Format settings, CABAC : Yes
Format settings, ReFrames : 4 frames
Codec ID : V_MPEG4/ISO/AVC
Duration : 1h 44mn
Bit rate : 900 Kbps
Width : 1 264 pixels
Height : 528 pixels
Display aspect ratio : 2.40:1
Frame rate mode : Constant
Frame rate : 23.976 (24000/1001) fps
Color space : YUV
Chroma subsampling : 4:2:0
Bit depth : 8 bits
Scan type : Progressive
Bits/(Pixel*Frame) : 0.056
Stream size : 673 MiB (58%)
Writing library : x264 core 142 r2479 dd79a61
Color range : Limited
Color primaries : BT.709
Transfer characteristics : BT.709
Matrix coefficients : BT.709

Audio
ID : 2
Format : AC-3
Format/Info : Audio Coding 3
Mode extension : CM (complete main)
Format settings, Endianness : Big
Codec ID : A_AC3
Duration : 1h 44mn
Bit rate mode : Constant
Bit rate : 640 Kbps
Channel(s) : 6 channels
Channel positions : Front: L C R, Side: L R, LFE
Sampling rate : 48.0 KHz
Frame rate : 31.250 fps (1536 spf)
Compression mode : Lossy
Stream size : 479 MiB (42%)
Title : Blu-Ray
Language : Russian
Default : Yes
Forced : No

Text
ID : 3
Format : UTF-8
Codec ID : S_TEXT/UTF8
Codec ID/Info : UTF-8 Plain Text
Duration : 1h 38mn
Bit rate : 21 bps
Count of elements : 460
Stream size : 15.8 KiB (0%)
Default : Yes
Forced : No

Lista plików

Trackery

  • udp://tracker.coppersurfer.tk:6969/announce
  • udp://9.rarbg.com:2750/announce
  • udp://9.rarbg.to:2780/announce
  • udp://tracker.opentrackr.org:1337/announce
  • udp://9.rarbg.me:2800/announce
  • udp://eddie4.nl:6969/announce
  • udp://shadowshq.eddie4.nl:6969/announce
  • http://auratorrent.pl:8089/announce
  • http://tracker.filetracker.pl:8089/announce
  • http://tracker.devil-torrents.pl/announce
  • udp://explodie.org:6969/announce
  • udp://tracker.leechers-paradise.org:6969/announce
  • http://tracker.torrentyorg.pl/announce
  • http://tracker.best-torrents.net:6969/announce
  • udp://tracker.best-torrents.net:6969/announce
  • http://tracker.electro-torrent.pl/announce
  • Komentarze są widoczne dla osób zalogowanych!

    Żaden z plików nie znajduje się na serwerze. Torrenty są własnością użytkowników. Administrator serwisu nie może ponieść konsekwencji za to co użytkownicy wstawiają, lub za to co czynią na stronie. Nie możesz używać tego serwisu do rozpowszechniania lub ściągania materiałów do których nie masz odpowiednich praw lub licencji. Użytkownicy odpowiedzialni są za przestrzeganie tych zasad.
    Copyright © 2024 Ex-torrenty.org