TV / Komedia
Kidding S01E10 [FiNAL] [480p] [WEB] [DD2.0] [XviD-Ralf] [Lektor PL]


Dodał: tomysparow559
Data dodania:
2018-11-16 19:05:46
Rozmiar: 369.07 MB
Ostat. aktualizacja:
2018-11-17 09:47:55
Seedów: 25
Peerów: 30


Komentarze: 0

==================
...::: INFO :::...
==================

Tytuł: Kidding
[Sezon: 1] [Epizodów: 10] [Seial TV/2018]


Ocena: IMDB - 6.5/10 (384)
Produkcja: USA
Stacja TV: SHOWtime
Gatunek: Komedia | Dramat
Czas trwania: 32 min.
Premiera: 09.09.2018 - Świat
Twórca: Dave Holstein

==================
...::: OPIS :::...
==================

Głównym bohaterem serialu Kidding jest Jeff, znany jako Pan Pickles – legendarny prezenter dziecięcych programów telewizyjnych. Mężczyzna jest wzorem mądrości i dobroci życiowej zarówno dla najmłodszych widzów, tych o dopiero kształtujących się umysłach, jak i ich rodziców, którzy wychowali się na jego programach. Kiedy sytuacja rodzinna Jeffa zaczyna się mocno komplikować, bohater przekonuje się, że w sytuacji kryzysowej, która go coraz bardziej przerasta, wskazówek postępowania nie znajdzie w bajkach i przypowieściach. W efekcie dobry człowiek zanurzony w okrutnym świecie zaczyna odchodzić od zmysłów, co jednocześnie jest źródłem komizmu i chwyta za serce. Z czasem Jeff zaczyna buntować się przeciw regułom ustalonym przez producenta wykonawczego, Seba (Frank Langella), w prowadzonym przez niego programie. Ten obawia się, że stan psychiczny telewizyjnej gwiazdy nieodwracalnie może zniszczyć markę, jaką razem stworzyli, w związku z czym dyskretnie zaczyna przygotowywać się do wymiany prowadzącego. W tym samym czasie Deidre (Catherine Keener), która kieruje działem lalkarskim, boryka się z własnymi prywatnymi i zawodowymi problemami.

==============
...::: OBSADA :::...
==============

Jim Carrey - Jeff
Judy Greer - Jill
Catherine Keener- Deirdre
Frank Langella - Seb
Bernard White - Scott Perera
Jernard Burks - Denny

=======================
...::: DANE TECHNICZNE :::...
=======================

Format : AVI
Format/Info : Audio Video Interleave
Format profile : OpenDML
Format settings : rec
File size : 423 MiB
Duration : 29 min 42 s
Overall bit rate : 1 990 kb/s
Writing application : AVI-Mux GUI 1.17.8.3, Feb 16 201019:42:50

Video
ID : 0
Format : MPEG-4 Visual
Format profile : Advanced Simple@L5
Format settings : BVOP2
Format settings, BVOP : 2
Format settings, QPel : No
Format settings, GMC : No warppoints
Format settings, Matrix : Default (H.263)
Codec ID : XVID
Codec ID/Hint : XviD
Duration : 29 min 42 s
Bit rate : 1 600 kb/s
Width : 720 pixels
Height : 400 pixels
Display aspect ratio : 16:9
Frame rate : 23.976 (24000/1001) FPS
Original frame rate : 23.976 (23976/1000) FPS
Color space : YUV
Chroma subsampling : 4:2:0
Bit depth : 8 bits
Scan type : Progressive
Compression mode : Lossy
Bits/(Pixel*Frame) : 0.232
Stream size : 340 MiB (80%)
Writing library : XviD 67

Audio
ID : 1
Format : AC-3
Format/Info : Audio Coding 3
Codec ID : 2000
Duration : 29 min 42 s
Bit rate mode : Constant
Bit rate : 384 kb/s
Channel(s) : 2 channels
Channel positions : Front: L R
Sampling rate : 48.0 kHz
Frame rate : 31.250 FPS (1536 SPF)
Bit depth : 16 bits
Compression mode : Lossy
Stream size : 81.6 MiB (19%)
Alignment : Aligned on interleaves
Interleave, duration : 64 ms (1.53 video frames)
Interleave, preload duration : 192 ms
Title : Kidding.S01E02.Pusilanimous
Service kind : Complete Main

[video=https://www.youtube.com/watch?v=OzwU7dbmAyY]

Lista plików Show/Hide [Pokaż/Ukryj]
Trackery
  • http://tracker.vanitycore.co:6969/announce
  • udp://tracker.pirateparty.gr:6969/announce
  • udp://tracker.coppersurfer.tk:6969/announce
  • udp://eddie4.nl:6969/announce
  • udp://shadowshq.eddie4.nl:6969/announce
  • udp://tracker.leechers-paradise.org:6969/announce
  • http://open.kickasstracker.com/announce
  • http://retracker.mgts.by:80/announce
  • http://tracker2.itzmx.com:6961/announce
  • http://tracker.city9x.com:2710/announce

Brak komentarzy!

Żaden z plików nie znajduje się na serwerze. Torrenty są własnością użytkowników. Administrator serwisu nie może ponieść konsekwencji za to co użytkownicy wstawiają, lub za to co czynią na stronie. Nie możesz używać tego serwisu do rozpowszechniania lub ściągania materiałów do których nie masz odpowiednich praw lub licencji. Użytkownicy odpowiedzialni są za przestrzeganie tych zasad.
Copyright © 2018 Ex-torrenty.org