Ex-torrenty.org
Info dla nowych użytkowników na stronie głównej
XviD/DivX / Familijny
Max (2015) [AC3] [BRRip.XviD]-NN [Lektor PL]


Dodał: Adam26
Data dodania:
2019-01-12 19:34:28
Rozmiar: 1.30 GB
Ostat. aktualizacja:
2019-05-20 19:17:45
Seedów: 6
Peerów: 0


Komentarze: 1

Pobrałeś/aś podziękuj To nic nie kosztuje a Motywuje!!

NA PROSBĘ OfiaraLosu

INFO

produkcja:USA
reżyseria:Boaz Yakin
scenariusz:Sheldon Lettich Boaz Yakin
premiera:29 stycznia 2015 (świat)
gatunek:Familijny Przygodowy

..( O filmie )..


https://www.filmweb.pl/film/Max-2015-715815

OPIS

Wyszkolony pies Max służył w Afganistanie. Stał się nerwowy i nieposłuszny, gdy opiekujący się nim żołnierz (Robbie Amell) zginął na froncie. Pies trafił wówczas do rodziny zmarłego. Zmagający się z własnymi problemami nastoletni brat żołnierza, Justin (Josh Wiggins), początkowo nie akceptuje psa. Z czasem jednak się z nim zaprzyjaźnia. Ciepły film familijny o więzi łączącej psa i człowieka. W roli głównej wystąpił Josh Wiggins, nominowany za swoją kreację do Nagrody Młodych Artystów.

OBSADA

Josh Wiggins ....... Justin
Lauren Graham ....... Pamela
Joseph Julian Soria ....... Emilio
Luke Kleintank ....... Tyler Harne
Thomas Haden Church ....... Ray
Robbie Amell ....... Kyle Wincott
Owen Harn ....... Stack

dane tech

File size : 1.30 GiB
Duration : 1 h 46 min
Overall bit rate : 1 744 kb/s

Video
Codec ID/Hint : XviD
Duration : 1 h 46 min
Bit rate : 1 542 kb/s
Width : 720 pixels
Height : 304 pixels
Display aspect ratio : 2.35:1
Frame rate : 25.000 FPS
Stream size : 1.15 GiB (88%)

Audio
Format : AC-3
Bit rate : 192 kb/s
Channel(s) : 2 channels
Channel positions : Front: L R
Sampling rate : 48.0 kHz
Stream size : 146 MiB (11%)

Lista plików Show/Hide [Pokaż/Ukryj]
Trackery
  • udp://tracker.coppersurfer.tk:6969/announce
  • udp://tracker.pirateparty.gr:6969/announce
  • udp://62.138.0.158:6969/announce
  • http://tracker.tfile.co:80/announce
  • http://tracker.torrentyorg.pl/announce
  • udp://retracker.lanta-net.ru:2710/announce
  • udp://ipv4.tracker.harry.lu:80/announce
  • udp://9.rarbg.to:2710/announce
  • udp://9.rarbg.me:2780/announce
  • udp://tracker.coppersurfer.tk:80/announce

<< Poprzednia      Następna >>
1 - 1

Dodał: Adam26 Data: 2019-01-12 19:35:00

śmiało polecam dobry film

1 - 1
<< Poprzednia      Następna >>

Żaden z plików nie znajduje się na serwerze. Torrenty są własnością użytkowników. Administrator serwisu nie może ponieść konsekwencji za to co użytkownicy wstawiają, lub za to co czynią na stronie. Nie możesz używać tego serwisu do rozpowszechniania lub ściągania materiałów do których nie masz odpowiednich praw lub licencji. Użytkownicy odpowiedzialni są za przestrzeganie tych zasad.
Copyright © 2019 Ex-torrenty.org