Ex-torrenty.org
Bardzo ważna informacja
na stronie głównej dotycząca
rejestracji nowych użytkowników
x264 / Akcja
Iron Man 3 (2013) [1080p MULTi BluRay x264 DTS AC3] [LEKTOR/DUBBING/NAPISY PL] (DENDA)


Dodał: Uploader
Data dodania:
2019-03-08 20:14:44
Rozmiar: 16.25 GB
Ostat. aktualizacja:
2019-12-13 15:11:43
Seedów: 4
Peerów: 0


Komentarze: 3

SERIA: Iron Man [2008-2013] COLLECTION

------------------------------------------------------------------------------------------------------------------
TUTAJ INNE CZĘŚCI: https://devil-torrents.pl/szukaj.php?search=iron+man+1080p+x264+multi+lektor+denda&cat=0
------------------------------------------------------------------------------------------------------------------

Iron Man 3 (2013) [1080p MULTi BluRay x264 DTS AC3] [LEKTOR/DUBBING/NAPISY PL] (DENDA)

...( Info )...

Reżyseria: Shane Black
Scenariusz: Drew Pearce, Shane Black
Gatunek: Akcja, Sci-Fi / Action, Adventure, Sci-Fi
Produkcja: Chiny, USA
Premiera: 9 maja 2013 (Polska), 12 kwietnia 2013 (świat)
Czas: 2 godz. 10 min.
PG: PG-13

https://www.filmweb.pl/film/Iron+Man+3-2013-491715/
https://fdb.pl/film/261169-iron-man-3/
https://www.imdb.com/title/tt1300854/

IMDB: 7,2/10 (671.221)

...( Opis )...

Tony Stark (Robert Downey Jr.) skonstruował niegdyś kostium - zbroję, którą zakłada, by jako Iron Man zwalczać niebezpiecznych przestępców. Teraz superbohater powraca, aby zmierzyć się z najgroźniejszym ze swoich przeciwników. Biolodzy Maya Hansen (Rebecca Hall) i Aldrich Killian (Guy Pearce) stworzyli zabójczy wirus Extremis i sprzedali go międzynarodowej grupie terrorystów, na której czele stoi tajemniczy Mandaryn (Ben Kingsley), niedościgniony mistrz sztuk walki i genialny naukowiec, marzący o władzy nad światem. W walce z szaleńcem u boku Iron Mana znowu staje jego najlepszy przyjaciel, pułkownik James Rhodes (Don Cheadle), który jako War Machine, w zbroi wynalezionej przez Starka, sieje postrach wśród bandytów. Tony może liczyć też na swoją piękną asystentkę, zakochaną w nim Pepper Potts (Gwyneth Paltrow).

...( Obsada )...

Robert Downey Jr. ... Tony Stark
Gwyneth Paltrow ... Pepper Potts
Don Cheadle ... Colonel James Rhodes
Guy Pearce ... Aldrich Killian
Rebecca Hall ... Maya Hansen
Jon Favreau ... Happy Hogan
Ben Kingsley ... Trevor Slattery

...( Dane Techniczne )...

==========================================================================================================
Plik: Iron.Man.2013_3.PLDUB.1080p.MULTi.BluRay.x264.DTS.AC3-DENDA.mkv
----------------------------------------------------------------------------------------------------------
----------[ eac3to v3.34 ]--------------------------------------------------------------------------------
----------------------------------------------------------------------------------------------------------
MKV, 1 video track, 3 audio tracks, 3 subtitle tracks, 2:10:33, 24p /1.001
1: h264/AVC, English, 1920x800 24p /1.001 (12:5)
2: AC3, Polish, 5.1 channels, 640kbps, 48kHz
  "Polish AC3 5.1"
3: AC3, Polish, 5.1 channels, 640kbps, 48kHz
  "Polish AC3 5.1 dubbing"
4: DTS, English, 5.1 channels, 1509kbps, 48kHz
  "English DTS 5.1"
5: Subtitle (SRT), Polish, "Polish SRT"
6: Subtitle (PGS), Polish, "Polish PGS"
7: Subtitle (PGS), English, "English PGS"
----------------------------------------------------------------------------------------------------------
----------[ ffmpeg version N-92829-g1a6cca1989 | built with gcc 8.2.1 (GCC) 20181201 ]--------------------
----------------------------------------------------------------------------------------------------------
Input #0, matroska,webm, from 'Iron.Man.2013_3.PLDUB.1080p.MULTi.BluRay.x264.DTS.AC3-DENDA.mkv':
 Metadata:
  encoder     : libebml2 v0.21.2 + libmatroska2 v0.22.3
  creation_time  : 2018-05-20T22:49:53.000000Z
 Duration: 02:10:32.90, start: 0.000000, bitrate: 17821 kb/s
  Stream #0:0(eng), 118, 1/1000: Video: h264 (High), 1 reference frame, yuv420p(tv, bt709, progressive, left), 1920x800 [SAR 1:1 DAR 12:5], 23.98 fps, 23.98 tbr, 1k tbn, 47.95 tbc (default)
  Stream #0:1(pol), 159, 1/1000: Audio: ac3, 48000 Hz, 5.1(side), fltp, 640 kb/s (default)
  Metadata:
   title      : Polish AC3 5.1
  Stream #0:2(pol), 157, 1/1000: Audio: ac3, 48000 Hz, 5.1(side), fltp, 640 kb/s
  Metadata:
   title      : Polish AC3 5.1 dubbing
  Stream #0:3(eng), 482, 1/1000: Audio: dts (DTS), 48000 Hz, 5.1(side), fltp, 1536 kb/s
  Metadata:
   title      : English DTS 5.1
  Stream #0:4(pol), 0, 1/1000: Subtitle: subrip
  Metadata:
   title      : Polish SRT
  Stream #0:5(pol), 0, 1/1000: Subtitle: hdmv_pgs_subtitle
  Metadata:
   title      : Polish PGS
  Stream #0:6(eng), 0, 1/1000: Subtitle: hdmv_pgs_subtitle
  Metadata:
   title      : English PGS
----------------------------------------------------------------------------------------------------------
----------[ napisy24.pl v1.93 ]---------------------------------------------------------------------------
----------------------------------------------------------------------------------------------------------
Hash: 86710D0B41BEC0FF
Format: Matroska
Czas: 02:10:32.896
Rozmiar: 16.3 GiB (17449132679)

Wideo (0):
Kodek:     (V_MPEG4/ISO/AVC) AVC
Format:    AVC
Rozmiar Obrazu: 1920x800
FrameRate:   23.976 (24000/1001) FPS
Aspect ratio: 2.40:1
BitRate:    15.0 Mb/s

Audio (0):
Kodek:     (AC3) AC3
Format:    AC-3
Kanały:    6 channels
BitRate:    640 kb/s
Tytuł:     Polish AC3 5.1
Język:    Polish

Audio (1):
Kodek:     (AC3) AC3
Format:    AC-3
Kanały:    6 channels
BitRate:    640 kb/s
Tytuł:     Polish AC3 5.1 dubbing
Język:    Polish

Audio (2):
Kodek:     (DTS) DTS
Format:    DTS
Kanały:    6 channels
BitRate:    1 509 kb/s
Tytuł:     English DTS 5.1
Język:    English


Napisy (0):
Kodek:     (S_TEXT/UTF8) UTF-8
Format:    UTF-8
Język:    Polish (Polish SRT)

Napisy (1):
Kodek:     (S_HDMV/PGS) PGS
Format:    PGS
Język:    Polish (Polish PGS)

Napisy (2):
Kodek:     (S_HDMV/PGS) PGS
Format:    PGS
Język:    English (English PGS)
----------------------------------------------------------------------------------------------------------
----------[ MediaInfo 18.12 ]-----------------------------------------------------------------------------
----------------------------------------------------------------------------------------------------------
General
Unique ID                : 130318209482623203803983222266153201271 (0x620A5FCB301A0A9DE1513EA08BDCEE77)
Complete name              : Iron.Man.2013_3.PLDUB.1080p.MULTi.BluRay.x264.DTS.AC3-DENDA.mkv
Format                  : Matroska
Format version              : Version 2
File size                : 16.3 GiB
Duration                 : 2 h 10 min
Overall bit rate             : 17.8 Mb/s
Encoded date               : UTC 2018-05-20 22:49:53
Writing application           : mkclean 0.8.10 from libebml v1.3.6 + libmatroska v1.4.9 + mkvmerge v23.0.0 ('The Bride Said No') 64-bit
Writing library             : libebml2 v0.21.2 + libmatroska2 v0.22.3
ErrorDetectionType            : Custom

Video
ID                    : 1
Format                  : AVC
Format/Info               : Advanced Video Codec
Format profile              : High@L4.1
Format settings             : CABAC / 4 Ref Frames
Format settings, CABAC          : Yes
Format settings, RefFrames        : 4 frames
Codec ID                 : V_MPEG4/ISO/AVC
Duration                 : 2 h 10 min
Bit rate                 : 15.0 Mb/s
Width                  : 1 920 pixels
Height                  : 800 pixels
Display aspect ratio           : 2.40:1
Frame rate mode             : Constant
Frame rate                : 23.976 (24000/1001) FPS
Color space               : YUV
Chroma subsampling            : 4:2:0
Bit depth                : 8 bits
Scan type                : Progressive
Bits/(Pixel*Frame)            : 0.407
Stream size               : 13.4 GiB (82%)
Writing library             : x264 core 148 r2708 86b7198
Encoding settings            : cabac=1 / ref=4 / deblock=1:0:0 / analyse=0x3:0x113 / me=umh / subme=8 / psy=1 / psy_rd=1.00:0.00 / mixed_ref=1 / me_range=16 / chroma_me=1 / trellis=1 / 8x8dct=1 / cqm=0 / deadzone=21,11 / fast_pskip=1 / chroma_qp_offset=-2 / threads=12 / lookahead_threads=4 / sliced_threads=0 / nr=0 / decimate=1 / interlaced=0 / bluray_compat=0 / constrained_intra=0 / bframes=8 / b_pyramid=2 / b_adapt=2 / b_bias=0 / direct=3 / weightb=1 / open_gop=0 / weightp=2 / keyint=240 / keyint_min=24 / scenecut=40 / intra_refresh=0 / rc_lookahead=50 / rc=2pass / mbtree=1 / bitrate=15000 / ratetol=1.0 / qcomp=0.60 / qpmin=0 / qpmax=69 / qpstep=4 / cplxblur=20.0 / qblur=0.5 / vbv_maxrate=62500 / vbv_bufsize=78125 / nal_hrd=none / filler=0 / ip_ratio=1.40 / aq=1:1.00
Language                 : English
Default                 : Yes
Forced                  : No
Color range               : Limited
Color primaries             : BT.709
Transfer characteristics         : BT.709
Matrix coefficients           : BT.709

Audio #1
ID                    : 2
Format                  : AC-3
Format/Info               : Audio Coding 3
Commercial name             : Dolby Digital
Codec ID                 : A_AC3
Duration                 : 2 h 10 min
Bit rate mode              : Constant
Bit rate                 : 640 kb/s
Channel(s)                : 6 channels
Channel layout              : L R C LFE Ls Rs
Sampling rate              : 48.0 kHz
Frame rate                : 31.250 FPS (1536 SPF)
Bit depth                : 16 bits
Compression mode             : Lossy
Stream size               : 598 MiB (4%)
Title                  : Polish AC3 5.1
Language                 : Polish
Service kind               : Complete Main
Default                 : Yes
Forced                  : No

Audio #2
ID                    : 3
Format                  : AC-3
Format/Info               : Audio Coding 3
Commercial name             : Dolby Digital
Codec ID                 : A_AC3
Duration                 : 2 h 10 min
Bit rate mode              : Constant
Bit rate                 : 640 kb/s
Channel(s)                : 6 channels
Channel layout              : L R C LFE Ls Rs
Sampling rate              : 48.0 kHz
Frame rate                : 31.250 FPS (1536 SPF)
Bit depth                : 16 bits
Compression mode             : Lossy
Stream size               : 598 MiB (4%)
Title                  : Polish AC3 5.1 dubbing
Language                 : Polish
Service kind               : Complete Main
Default                 : No
Forced                  : No

Audio #3
ID                    : 4
Format                  : DTS
Format/Info               : Digital Theater Systems
Codec ID                 : A_DTS
Duration                 : 2 h 10 min
Bit rate mode              : Constant
Bit rate                 : 1 509 kb/s
Channel(s)                : 6 channels
Channel layout              : C L R Ls Rs LFE
Sampling rate              : 48.0 kHz
Frame rate                : 93.750 FPS (512 SPF)
Bit depth                : 24 bits
Compression mode             : Lossy
Stream size               : 1.38 GiB (8%)
Title                  : English DTS 5.1
Language                 : English
Default                 : No
Forced                  : No

Text #1
ID                    : 5
Format                  : UTF-8
Codec ID                 : S_TEXT/UTF8
Codec ID/Info              : UTF-8 Plain Text
Title                  : Polish SRT
Language                 : Polish
Default                 : No
Forced                  : No

Text #2
ID                    : 6
Format                  : PGS
Muxing mode               : zlib
Codec ID                 : S_HDMV/PGS
Codec ID/Info              : Picture based subtitle format used on BDs/HD-DVDs
Title                  : Polish PGS
Language                 : Polish
Default                 : No
Forced                  : No

Text #3
ID                    : 7
Format                  : PGS
Muxing mode               : zlib
Codec ID                 : S_HDMV/PGS
Codec ID/Info              : Picture based subtitle format used on BDs/HD-DVDs
Title                  : English PGS
Language                 : English
Default                 : No
Forced                  : No
==========================================================================================================

Lista plików Show/Hide [Pokaż/Ukryj]
Trackery
  • udp://tracker.opentrackr.org:1337/announce
  • udp://tracker.coppersurfer.tk:6969/announce
  • udp://tracker.leechers-paradise.org:6969/announce
  • udp://tracker.openbittorrent.com:80/announce
  • udp://9.rarbg.me:2790/announce
  • http://p4p.arenabg.com:1337/announce
  • http://tracker.city9x.com:2710/announce
  • udp://9.rarbg.me:2780/announce
  • http://bt.unionpeer.org:777/announce
  • http://tracker.vanitycore.co:6969/announce
  • http://agusiq-torrents.pl:6969/announce
  • http://tracker.trackerfix.com/announce
  • http://tracker.aletorrenty.pl:2710/announce

Komentarze są widoczne dla osób zalogowanych!

Żaden z plików nie znajduje się na serwerze. Torrenty są własnością użytkowników. Administrator serwisu nie może ponieść konsekwencji za to co użytkownicy wstawiają, lub za to co czynią na stronie. Nie możesz używać tego serwisu do rozpowszechniania lub ściągania materiałów do których nie masz odpowiednich praw lub licencji. Użytkownicy odpowiedzialni są za przestrzeganie tych zasad.
Copyright © 2019 Ex-torrenty.org