Ex-torrenty.org
Info dla nowych użytkowników na stronie głównej
TV / Motoryzacyjny
The Grand Tour S03E12 Legends and Luggage [720p] [AMZN] [WEBRip] [DDP5.1] [x264] [QOQ] [Multi Sub] [Napisy PL]


Dodał: Uploader
Data dodania:
2019-03-29 19:11:41
Rozmiar: 2.45 GB
Ostat. aktualizacja:
2019-05-02 22:34:10
Seedów: 144
Peerów: 8


Komentarze: 0

...( Info )...

gatunek: Motoryzacyjny
produkcja: USA
premiera: 18 listopada 2016 (świat)


...( Opis )...

Jeremy, Richard i James podróżują po wszystkich kontynentach testując nowe pojazdy od producentów z całego świata.

...( Obsada )...

Jeremy Clarkson
Richard Hammond
James May

...( Dane Techniczne )...

Video
ID : 1
Format : AVC
Format/Info : Advanced Video Codec
Format profile : High@L3.1
Format settings : CABAC / 4 Ref Frames
Format settings, CABAC : Yes
Format settings, ReFrames : 4 frames
Codec ID : V_MPEG4/ISO/AVC
Duration : 57 min 40 s
Bit rate mode : Constant
Bit rate : 5 438 kb/s
Nominal bit rate : 6 000 kb/s
Width : 1 280 pixels
Height : 720 pixels
Display aspect ratio : 16:9
Frame rate mode : Constant
Frame rate : 25.000 FPS
Color space : YUV
Chroma subsampling : 4:2:0
Bit depth : 8 bits
Scan type : Progressive
Bits/(Pixel*Frame) : 0.236
Stream size : 2.19 GiB (89%)
Default : Yes
Forced : No
Color range : Limited
Color primaries : BT.709
Transfer characteristics : BT.709
Matrix coefficients : BT.709

Audio
ID : 2
Format : E-AC-3
Format/Info : Enhanced AC-3
Commercial name : Dolby Digital Plus
Codec ID : A_EAC3
Duration : 57 min 40 s
Bit rate mode : Constant
Bit rate : 640 kb/s
Channel(s) : 6 channels
Channel layout : L R C LFE Ls Rs
Sampling rate : 48.0 kHz
Frame rate : 31.250 FPS (1536 SPF)
Compression mode : Lossy
Stream size : 264 MiB (11%)
Language : English
Service kind : Complete Main
Default : Yes
Forced : No

Lista plików Show/Hide [Pokaż/Ukryj]
Trackery
  • udp://9.rarbg.to:2710/announce
  • udp://9.rarbg.me:2710/announce
  • http://tracker.trackerfix.com:80/announce

Brak komentarzy!

Żaden z plików nie znajduje się na serwerze. Torrenty są własnością użytkowników. Administrator serwisu nie może ponieść konsekwencji za to co użytkownicy wstawiają, lub za to co czynią na stronie. Nie możesz używać tego serwisu do rozpowszechniania lub ściągania materiałów do których nie masz odpowiednich praw lub licencji. Użytkownicy odpowiedzialni są za przestrzeganie tych zasad.
Copyright © 2019 Ex-torrenty.org