Ex-torrenty.org
Info dla nowych użytkowników na stronie głównej
Filmy TS/CAM / Dramat
Pewnego razu w.... Hollywood - Once Upon a Time in Hollywood (2019) [720p] [HDCAM] [AC3 2.0] [ORCA88]


Dodał: Uploader
Data dodania:
2019-08-30 23:11:29
Rozmiar: 3.44 GB
Ostat. aktualizacja:
2019-09-14 17:42:38
Seedów: 4165
Peerów: 2735


Komentarze: 1

...( Info )...

Produkcja: USA, Wielka Brytania
Gatunek: Dramat, Kryminał
Premiera: 16 Sierpnia 2019 (Polska), 21 Maja 2019 (świat)
Reżyseria: Quentin Tarantino
Scenariusz: Quentin Tarantino

...( Opis )...

Aktor Rick Dalton i jego przyjaciel kaskader powracają do Hollywood. Mężczyźni próbują odnaleźć się w przemyśle filmowym, który ewoluował podczas ich nieobecności.

...( Obsada )...

★ Leonardo DiCaprio .... Rick Dalton
★ Brad Pitt .... Cliff Booth
★ Margot Robbie .... Sharon Tate
★ Al Pacino .... Marvin Schwarzs
★ Emile Hirsch .... Jay Sebring
★ Margaret Qualley .... Pussycat
★ Timothy Olyphant .... James Stacey
★ Julia Butters .... Trudi

...( Dane Techniczne )...


Video
ID : 1
Format : AVC
Format/Info : Advanced Video Codec
Format profile : High@L3.2
Format settings, CABAC : Yes
Format settings, RefFrames : 7 frames
Codec ID : V_MPEG4/ISO/AVC
Duration : 2 h 37 min
Bit rate mode : Variable
Bit rate : 2 842 kb/s
Maximum bit rate : 18.4 Mb/s
Width : 1 280 pixels
Height : 536 pixels
Display aspect ratio : 2.40:1
Frame rate mode : Constant
Frame rate : 30.000 FPS
Standard : Component
Color space : YUV
Chroma subsampling : 4:2:0
Bit depth : 8 bits
Scan type : Progressive
Bits/(Pixel*Frame) : 0.138
Stream size : 3.13 GiB (91%)
Default : Yes
Forced : No
Color range : Limited
Color primaries : BT.709
Transfer characteristics : BT.709
Matrix coefficients : BT.709

Audio
ID : 2
Format : AC-3
Format/Info : Audio Coding 3
Format settings, Endianness : Big
Codec ID : A_AC3
Duration : 2 h 37 min
Bit rate mode : Constant
Bit rate : 224 kb/s
Channel(s) : 2 channels
Channel positions : Front: L R
Sampling rate : 48.0 kHz
Frame rate : 31.250 FPS (1536 SPF)
Bit depth : 16 bits
Compression mode : Lossy
Stream size : 252 MiB (7%)
Service kind : Complete Main
Default : Yes
Forced : No


UWAGA!

BARDZO NISKA JAKOŚĆ OBRAZU I DŹWIĘKU - WERSJA CAM

Lista plików Show/Hide [Pokaż/Ukryj]
Trackery
  • udp://tracker.open-internet.nl:6969/announce
  • udp://tracker.leechers-paradise.org:6969/announce
  • udp://tracker.pirateparty.gr:6969/announce
  • udp://exodus.desync.com:6969/announce
  • udp://tracker.opentrackr.org:1337/announce
  • udp://9.rarbg.to:2770/announce
  • udp://9.rarbg.to:2740/announce
  • udp://9.rarbg.to:2720/announce
  • udp://9.rarbg.me:2730/announce
  • udp://9.rarbg.me:2740/announce
  • udp://9.rarbg.me:2770/announce
  • udp://9.rarbg.to:2710/announce
  • udp://9.rarbg.to:2730/announce
  • udp://denis.stalker.upeer.me:6969/announce
  • udp://open.demonii.si:1337/announce
  • udp://tracker.torrent.eu.org:451/announce
  • udp://tracker.cyberia.is:6969/announce
  • udp://torrentclub.tech:6969/announce
  • udp://retracker.lanta-net.ru:2710/announce
  • udp://tracker.tiny-vps.com:6969/announce
  • udp://tracker.moeking.me:6969/announce
  • udp://open.stealth.si:80/announce
  • udp://bt.xxx-tracker.com:2710/announce
  • udp://ipv4.tracker.harry.lu:80/announce
  • udp://ipv6.tracker.harry.lu:80/announce
  • udp://tracker.port443.xyz:6969/announce
  • udp://tracker.internetwarriors.net:1337/announce
  • udp://tracker.zer0day.to:1337/announce
  • udp://tracker.mg64.net:6969/announce
  • udp://tracker.justseed.it:1337/announce
  • udp://eddie4.nl:6969/announce
  • udp://tracker.coppersurfer.tk:6969/announce
  • http://tracker.tfile.co:80/announce

<< Poprzednia      Następna >>
1 - 1

Dodał: siwy199215 Data: 2019-09-11 16:13:05

słaba jakość

1 - 1
<< Poprzednia      Następna >>

Żaden z plików nie znajduje się na serwerze. Torrenty są własnością użytkowników. Administrator serwisu nie może ponieść konsekwencji za to co użytkownicy wstawiają, lub za to co czynią na stronie. Nie możesz używać tego serwisu do rozpowszechniania lub ściągania materiałów do których nie masz odpowiednich praw lub licencji. Użytkownicy odpowiedzialni są za przestrzeganie tych zasad.
Copyright © 2019 Ex-torrenty.org