Ex-torrenty.org
Ważne info na stronie głównej
dotyczące rejestracji użytkowników
XviD/DivX / Horror
Preriowe opowieści Grim Prairie Tales(1990) [DVDRip] [XviD] [Lektor PL] [joanna668]


Dodał: joanna668
Data dodania:
2019-10-09 14:20:11
Rozmiar: 1.37 GB
Ostat. aktualizacja:
2019-10-13 11:20:14
Seedów: 6
Peerów: 15


Komentarze: 2

reżyseria:Wayne Coe
scenariusz:Wayne Coe
gatunek:Horror Western
produkcja: USA
premiera:14 września 1990 (świat)

Dobrze się zapowiadający pisarz z Seattle - Farley, wędruje samotnie przez pustynię na Wschód. Nastała noc, rozbija obóz i rozpala ognisko. Nagle z mroku wyłania się tajemniczy jeździec. Okazuje się, że jest to Morrison, człowiek gór, łowca głów, który przemierza pustynię na koniu, wioząc nieboszczyka. Kiedy się bliżej zaznajomili, Morrison zaczyna opowiadać niesamowite historie. Pierwszą, o prastarej klątwie Indian i człowieku, który zbezcześcił indiański cmentarz, za co został pogrzebany żywcem. Bohaterem kolejnej opowieści jest wędrowiec, który spotykał na pustyni kobietę w ciąży, żywiącą się ciałami łatwowiernych mężczyzn.


James Earl Jones jako Morrison
Brad Dourif jako Farley
Will Hare jako Lee
Marc McClure jako Tom
Michelle Joyner jako Jenny

Format : AVI
Format/Info : Audio Video Interleave
File size : 1.37 GiB
Duration : 1 h 27 min
Overall bit rate : 2 243 kb/s
Writing application : VirtualDubMod 1.5.4.1 (build 2178/release)
Writing library : VirtualDubMod build 2178/release

Video
ID : 0
Format : MPEG-4 Visual
Format profile : Advanced Simple@L5
Format settings : BVOP1 / Custom Matrix
Format settings, BVOP : 1
Format settings, QPel : No
Format settings, GMC : No warppoints
Format settings, Matrix : Custom
Codec ID : XVID
Codec ID/Hint : XviD
Duration : 1 h 27 min
Bit rate : 1 954 kb/s
Width : 656 pixels
Height : 496 pixels
Display aspect ratio : 4:3
Frame rate : 29.970 (30000/1001) FPS
Color space : YUV
Chroma subsampling : 4:2:0
Bit depth : 8 bits
Scan type : Progressive
Compression mode : Lossy
Bits/(Pixel*Frame) : 0.200
Stream size : 1.19 GiB (87%)
Writing library : XviD 1.2.1 (UTC 2008-12-04)

Audio
ID : 1
Format : AC-3
Format/Info : Audio Coding 3
Commercial name : Dolby Digital
Codec ID : 2000
Duration : 1 h 27 min
Bit rate mode : Constant
Bit rate : 192 kb/s
Channel(s) : 2 channels
Channel layout : L R
Sampling rate : 48.0 kHz
Frame rate : 31.250 FPS (1536 SPF)
Bit depth : 16 bits
Compression mode : Lossy
Stream size : 120 MiB (9%)
Alignment : Split accross interleaves
Language : Polish

Lista plików Show/Hide [Pokaż/Ukryj]
Trackery
  • http://tracker1.itzmx.com:8080/announce
  • udp://retracker.lanta-net.ru:2710/announce
  • udp://9.rarbg.me:2780/announce
  • udp://tracker.opentrackr.org:1337/announce
  • udp://opentrackr.org:1337/announce
  • udp://tracker.pirateparty.gr:6969/announce
  • udp://tracker.tiny-vps.com:6969/announce
  • udp://denis.stalker.upeer.me:6969/announce
  • udp://tracker.filemail.com:6969/announce
  • udp://exodus.desync.com:6969/announce
  • udp://tracker.openbittorrent.com:80/announce\
  • udp://explodie.org:6969/announce
  • udp://thetracker.org:80/announce
  • udp://tracker.internetwarriors.net:1337/announce

<< Poprzednia      Następna >>
1 - 2

Dodał: FUX Data: 2019-10-11 18:01:38

tez tak macie 1:09 i uszkodzony plik ?

Dodał: piasekq Data: 2019-10-12 15:09:22

Tak

1 - 2
<< Poprzednia      Następna >>

Żaden z plików nie znajduje się na serwerze. Torrenty są własnością użytkowników. Administrator serwisu nie może ponieść konsekwencji za to co użytkownicy wstawiają, lub za to co czynią na stronie. Nie możesz używać tego serwisu do rozpowszechniania lub ściągania materiałów do których nie masz odpowiednich praw lub licencji. Użytkownicy odpowiedzialni są za przestrzeganie tych zasad.
Copyright © 2019 Ex-torrenty.org