Ex-torrenty.org
Ważne info na stronie głównej
dotyczące rejestracji użytkowników
XviD/DivX / Akcja
Sabotaż Sabotage (1996) [DVDRip] [XviD] [Lektor PL] [joanna668]


Dodał: joanna668
Data dodania:
2019-10-09 18:09:44
Rozmiar: 699.89 MB
Ostat. aktualizacja:
2019-10-10 21:08:16
Seedów: 127
Peerów: 34


Komentarze: 0

reżyseria:Tibor Takács
scenariusz:Michael StokesRick Filon
gatunek:Akcja
produkcja:Kanada USA
premiera:20 listopada 1996 (świat)

Dwa lata temu Michael Bishop (Mark Dacascos) jako jedyny ocalał z nieudanej akcji uwolnienia zakładników przetrzymywanych przez bośniackich terrorystów. Teraz, po tragicznej śmierci swego szefa, którego był osobistym ochroniarzem, na własną rękę szuka jego zabójców. Razem z agentką FBI Lue Castle odkrywają, że sprawą tą interesuje się także CIA. Okazuje się, że snajperem, który zastrzelił jego szefa jest znany służbom specjalnym płatny zabójca Sherwood (Tonny Todd) - przywódca terrorystów z Bośni. Bishop i FBI są bliscy jego schwytania, gdy tymczasem Sherwood porywa córeczkę Lue..


Mark Dacascos jako Michael Bishop
Carrie-Anne Moss jako Louise Castle
Tony Todd jako Sherwood
Graham Greene jako Tollander
John Neville jako Follenfant

Format : AVI
Format/Info : Audio Video Interleave
File size : 700 MiB
Duration : 1 h 38 min
Overall bit rate mode : Variable
Overall bit rate : 989 kb/s
Writing application : VirtualDubMod 1.5.10.1 (build 2439/release)
Writing library : VirtualDubMod build 2439/release

Video
ID : 0
Format : MPEG-4 Visual
Format profile : Advanced Simple@L5
Format settings : BVOP2
Format settings, BVOP : 2
Format settings, QPel : No
Format settings, GMC : No warppoints
Format settings, Matrix : Default (H.263)
Muxing mode : Packed bitstream
Codec ID : XVID
Codec ID/Hint : XviD
Duration : 1 h 38 min
Bit rate : 861 kb/s
Width : 576 pixels
Height : 432 pixels
Display aspect ratio : 4:3
Frame rate : 25.000 FPS
Color space : YUV
Chroma subsampling : 4:2:0
Bit depth : 8 bits
Scan type : Progressive
Compression mode : Lossy
Bits/(Pixel*Frame) : 0.138
Stream size : 609 MiB (87%)
Writing library : XviD 1.0.3 (UTC 2004-12-20)

Audio
ID : 1
Format : MPEG Audio
Format version : Version 1
Format profile : Layer 3
Format settings : Joint stereo
Codec ID : 55
Codec ID/Hint : MP3
Duration : 1 h 38 min
Bit rate mode : Variable
Bit rate : 115 kb/s
Channel(s) : 2 channels
Sampling rate : 48.0 kHz
Compression mode : Lossy
Stream size : 81.5 MiB (12%)
Alignment : Aligned on interleaves
Interleave, duration : 24 ms (0.60 video frame)

Lista plików Show/Hide [Pokaż/Ukryj]
Trackery
  • http://tracker1.itzmx.com:8080/announce
  • udp://9.rarbg.me:2780/announce
  • udp://tracker.openbittorrent.com:80/announce\
  • udp://tracker.pirateparty.gr:6969/announce
  • udp://tracker.tiny-vps.com:6969/announce
  • udp://tracker.filemail.com:6969/announce
  • udp://tracker.opentrackr.org:1337/announce
  • udp://opentrackr.org:1337/announce
  • udp://retracker.lanta-net.ru:2710/announce
  • udp://denis.stalker.upeer.me:6969/announce
  • udp://exodus.desync.com:6969/announce
  • udp://explodie.org:6969/announce
  • udp://thetracker.org:80/announce
  • udp://tracker.internetwarriors.net:1337/announce

Brak komentarzy!

Żaden z plików nie znajduje się na serwerze. Torrenty są własnością użytkowników. Administrator serwisu nie może ponieść konsekwencji za to co użytkownicy wstawiają, lub za to co czynią na stronie. Nie możesz używać tego serwisu do rozpowszechniania lub ściągania materiałów do których nie masz odpowiednich praw lub licencji. Użytkownicy odpowiedzialni są za przestrzeganie tych zasad.
Copyright © 2019 Ex-torrenty.org