Ex-torrenty.org
Ważne info na stronie głównej
dotyczące rejestracji użytkowników
XviD/DivX / Akcja
Sanktuarium Sanctuary (1997) [DVDRip] [XviD] [Lektor PL] [joanna668]


Dodał: joanna668
Data dodania:
2019-10-09 18:16:10
Rozmiar: 699.48 MB
Ostat. aktualizacja:
2019-10-10 12:05:39
Seedów: 131
Peerów: 50


Komentarze: 0

reżyseria:Tibor Takács
scenariusz:Michael Stoke Brian Irving
gatunek:Akcja
produkcja: Kanada
premiera:25 sierpnia 1998 (świat)

Przed laty Luke Connolly pracował dla rządowej agencji wywiadowczej. Po jednej z misji sfingował swoją śmierć. Jego dane zostały wykasowane... więc przestał istnieć. Teraz, jako ksiądz prowadzi własną, niebezpieczną rozgrywkę. Zajmuje się ostrzeganiem i ratowaniem agentów rządowych, którzy z różnych przyczyn uznani zostali przez swoich pracodawców za zbędnych bądź niewygodnych. Informacje o przeznaczonych do likwidacji agentach Luke uzyskuje od jednego z wysoko postawionych urzędników rządowych, nie akceptującego drastycznej polityki swojej firmy. Wkrótce jednak i Luke'owi zaczyna grozić śmiertelne niebezpieczeństwo..

Hardee T. Lineham jako: Ojciec Ricci
David Calderisi Biskup GAllo
Mark Dacascos Luke Connolly
Kylie Travis Rachel Malcolm
Alex Karzis Tic Tac
Monika Schnarre Colette Fortier

Format : AVI
Format/Info : Audio Video Interleave
File size : 699 MiB
Duration : 1 h 39 min
Overall bit rate mode : Variable
Overall bit rate : 982 kb/s
Writing application : VirtualDubMod 1.5.4.1 (build 2178/release)
Writing library : VirtualDubMod build 2178/release

Video
ID : 0
Format : MPEG-4 Visual
Format profile : Advanced Simple@L5
Format settings : BVOP1 / Custom Matrix
Format settings, BVOP : 1
Format settings, QPel : No
Format settings, GMC : No warppoints
Format settings, Matrix : Custom
Codec ID : XVID
Codec ID/Hint : XviD
Duration : 1 h 39 min
Bit rate : 849 kb/s
Width : 640 pixels
Height : 480 pixels
Display aspect ratio : 4:3
Frame rate : 25.000 FPS
Color space : YUV
Chroma subsampling : 4:2:0
Bit depth : 8 bits
Scan type : Progressive
Compression mode : Lossy
Bits/(Pixel*Frame) : 0.111
Stream size : 605 MiB (86%)
Writing library : XviD 1.1.2 (UTC 2006-11-01)

Audio
ID : 1
Format : MPEG Audio
Format version : Version 1
Format profile : Layer 3
Format settings : Joint stereo / MS Stereo
Codec ID : 55
Codec ID/Hint : MP3
Duration : 1 h 39 min
Bit rate mode : Variable
Bit rate : 120 kb/s
Nominal bit rate : 128 kb/s
Channel(s) : 2 channels
Sampling rate : 48.0 kHz
Frame rate : 41.667 FPS (1152 SPF)
Compression mode : Lossy
Stream size : 85.7 MiB (12%)
Alignment : Aligned on interleaves
Interleave, duration : 24 ms (0.60 video frame)
Interleave, preload duration : 153 ms
Writing library : LAME3.97b

Lista plików Show/Hide [Pokaż/Ukryj]
Trackery
  • http://tracker1.itzmx.com:8080/announce
  • udp://tracker.opentrackr.org:1337/announce
  • udp://opentrackr.org:1337/announce
  • udp://tracker.pirateparty.gr:6969/announce
  • udp://tracker.tiny-vps.com:6969/announce
  • udp://tracker.openbittorrent.com:80/announce\
  • udp://denis.stalker.upeer.me:6969/announce
  • udp://9.rarbg.me:2780/announce
  • udp://retracker.lanta-net.ru:2710/announce
  • udp://exodus.desync.com:6969/announce
  • udp://explodie.org:6969/announce
  • udp://tracker.filemail.com:6969/announce
  • udp://thetracker.org:80/announce
  • udp://tracker.internetwarriors.net:1337/announce

Brak komentarzy!

Żaden z plików nie znajduje się na serwerze. Torrenty są własnością użytkowników. Administrator serwisu nie może ponieść konsekwencji za to co użytkownicy wstawiają, lub za to co czynią na stronie. Nie możesz używać tego serwisu do rozpowszechniania lub ściągania materiałów do których nie masz odpowiednich praw lub licencji. Użytkownicy odpowiedzialni są za przestrzeganie tych zasad.
Copyright © 2019 Ex-torrenty.org