Ex-torrenty.org
Ważne info na stronie głównej
dotyczące rejestracji użytkowników
XviD/DivX / Horror
Canaries (2017) [x264] [Lektor PL] [joanna668]


Dodał: joanna668
Data dodania:
2019-10-09 20:06:27
Rozmiar: 1.49 GB
Ostat. aktualizacja:
2019-10-11 01:01:48
Seedów: 269
Peerów: 48


Komentarze: 2

reżyseria:Peter Stray
scenariusz: Peter Stray
gatunek:Horror Sci-Fi
produkcja: Wielka Brytania
premiera: 26 sierpnia 2017 (świat)


Pierwsza fala inwazji obcych zbiega się z sylwestrową imprezą.


Hannah Daniel jako: Agnes D
Richard Mylan Nav
Craig Russell Steve Dennis
Steve Meo Huw
Aled Pugh Ryan
Sheena Bhattessa Sunita


Format : MPEG-4
Format profile : Base Media
Codec ID : isom (isom/iso2/avc1/mp41)
File size : 1.49 GiB
Duration : 1 h 23 min
Overall bit rate : 2 546 kb/s
Writing application : Lavf57.71.100

Video
ID : 1
Format : AVC
Format/Info : Advanced Video Codec
Format profile : Baseline@L3.1
Format settings : 2 Ref Frames
Format settings, CABAC : No
Format settings, RefFrames : 2 frames
Format settings, GOP : M=1, N=50
Codec ID : avc1
Codec ID/Info : Advanced Video Coding
Duration : 1 h 23 min
Bit rate : 2 500 kb/s
Width : 1 280 pixels
Height : 720 pixels
Display aspect ratio : 16:9
Frame rate mode : Constant
Frame rate : 23.976 (24000/1001) FPS
Color space : YUV
Chroma subsampling : 4:2:0
Bit depth : 8 bits
Scan type : Progressive
Bits/(Pixel*Frame) : 0.113
Stream size : 1.39 GiB (94%)
Writing library : x264 core 150
Encoding settings : cabac=0 / ref=2 / deblock=1:0:0 / analyse=0x1:0x111 / me=hex / subme=6 / psy=1 / psy_rd=1.00:0.00 / mixed_ref=1 / me_range=16 / chroma_me=1 / trellis=1 / 8x8dct=0 / cqm=0 / deadzone=21,11 / fast_pskip=1 / chroma_qp_offset=-2 / threads=12 / lookahead_threads=2 / sliced_threads=0 / nr=0 / decimate=1 / interlaced=0 / bluray_compat=0 / constrained_intra=0 / bframes=0 / weightp=0 / keyint=50 / keyint_min=26 / scenecut=0 / intra_refresh=0 / rc_lookahead=30 / rc=cbr / mbtree=1 / bitrate=2500 / ratetol=1.0 / qcomp=0.60 / qpmin=0 / qpmax=69 / qpstep=4 / vbv_maxrate=2500 / vbv_bufsize=5000 / nal_hrd=none / filler=0 / ip_ratio=1.40 / aq=1:1.00
Codec configuration box : avcC

Audio
ID : 2
Format : AAC LC
Format/Info : Advanced Audio Codec Low Complexity
Codec ID : mp4a-40-2
Duration : 1 h 23 min
Duration_LastFrame : -1 ms
Bit rate mode : Constant
Bit rate : 160 kb/s
Channel(s) : 2 channels
Channel layout : L R
Sampling rate : 44.1 kHz
Frame rate : 43.066 FPS (1024 SPF)
Compression mode : Lossy
Stream size : 95.9 MiB (6%)
Default : Yes
Alternate group : 1

Lista plików Show/Hide [Pokaż/Ukryj]
Trackery
  • http://tracker1.itzmx.com:8080/announce
  • udp://tracker.openbittorrent.com:80/announce\
  • udp://tracker.opentrackr.org:1337/announce
  • udp://tracker.pirateparty.gr:6969/announce
  • udp://9.rarbg.me:2780/announce
  • udp://opentrackr.org:1337/announce
  • udp://retracker.lanta-net.ru:2710/announce
  • udp://denis.stalker.upeer.me:6969/announce
  • udp://tracker.tiny-vps.com:6969/announce
  • udp://exodus.desync.com:6969/announce
  • udp://explodie.org:6969/announce
  • udp://tracker.filemail.com:6969/announce
  • udp://thetracker.org:80/announce
  • udp://tracker.internetwarriors.net:1337/announce

<< Poprzednia      Następna >>
1 - 2

Dodał: Martindrumowicz Data: 2019-10-10 18:39:59

joanna seduj

Dodał: joanna668 Data: 2019-10-11 00:55:38

Seduje zawsze do 3 pełnych

1 - 2
<< Poprzednia      Następna >>

Żaden z plików nie znajduje się na serwerze. Torrenty są własnością użytkowników. Administrator serwisu nie może ponieść konsekwencji za to co użytkownicy wstawiają, lub za to co czynią na stronie. Nie możesz używać tego serwisu do rozpowszechniania lub ściągania materiałów do których nie masz odpowiednich praw lub licencji. Użytkownicy odpowiedzialni są za przestrzeganie tych zasad.
Copyright © 2019 Ex-torrenty.org