Ex-torrenty.org
Ważne info na stronie głównej
dotyczące rejestracji użytkowników
XviD/DivX / Thriller
Strange Nature (2018) [x264] [Lektor PL] [joanna668]


Dodał: joanna668
Data dodania:
2019-10-09 20:54:07
Rozmiar: 0.98 GB
Ostat. aktualizacja:
2019-10-10 08:30:54
Seedów: 304
Peerów: 63


Komentarze: 1

reżyseria:James Ojala
scenariusz:James Ojala
gatunek:Thriller
produkcja:USA
premiera:31 maja 2017 (świat)

W wodach Minnesoty pojawiają się tysiące zdeformowanych żab. Mieszkańcy małego miasteczka muszą walczyć z nieznanym, gdy śmiertelne mutacje wydostają się poza stawy.


Stephen Tobolowsky jako: Burmistrz Paulson
John Hennigan Sam
Carlos Alazraqui Greg
Lisa Sheridan Kim Sweet
David Mattey Joseph

Format : AVC
Format/Info : Advanced Video Codec
Format profile : High@L3.1
Format settings : CABAC / 5 Ref Frames
Format settings, CABAC : Yes
Format settings, RefFrames : 5 frames
Codec ID : avc1
Codec ID/Info : Advanced Video Coding
Duration : 1 h 39 min
Bit rate : 1 280 kb/s
Width : 1 920 pixels
Height : 1 080 pixels
Display aspect ratio : 16:9
Frame rate mode : Constant
Frame rate : 23.976 (24000/1001) FPS
Color space : YUV
Chroma subsampling : 4:2:0
Bit depth : 8 bits
Scan type : Progressive
Bits/(Pixel*Frame) : 0.026
Stream size : 912 MiB (91%)
Writing library : x264 core 152 r2854 e9a5903
Encoding settings : cabac=1 / ref=5 / deblock=1:0:0 / analyse=0x3:0x113 / me=hex / subme=7 / psy=1 / psy_rd=1.00:0.00 / mixed_ref=1 / me_range=16 / chroma_me=1 / trellis=1 / 8x8dct=1 / cqm=0 / deadzone=21,11 / fast_pskip=1 / chroma_qp_offset=-2 / threads=8 / lookahead_threads=8 / sliced_threads=1 / slices=8 / nr=0 / decimate=1 / interlaced=0 / bluray_compat=0 / constrained_intra=0 / bframes=0 / weightp=2 / keyint=250 / keyint_min=23 / scenecut=40 / intra_refresh=0 / rc=2pass / mbtree=0 / bitrate=1280 / ratetol=1.0 / qcomp=0.60 / qpmin=0 / qpmax=69 / qpstep=4 / cplxblur=20.0 / qblur=0.5 / ip_ratio=1.40 / aq=1:1.00
Codec configuration box : avcC

Audio
ID : 2
Format : AAC LC
Format/Info : Advanced Audio Codec Low Complexity
Codec ID : mp4a-40-2
Duration : 1 h 39 min
Bit rate mode : Constant
Bit rate : 128 kb/s
Channel(s) : 2 channels
Channel layout : L R
Sampling rate : 44.1 kHz
Frame rate : 43.066 FPS (1024 SPF)
Compression mode : Lossy
Stream size : 91.1 MiB (9%)
Default : Yes
Alternate group : 1

Lista plików Show/Hide [Pokaż/Ukryj]
Trackery
  • http://tracker1.itzmx.com:8080/announce
  • udp://tracker.opentrackr.org:1337/announce
  • udp://opentrackr.org:1337/announce
  • udp://tracker.pirateparty.gr:6969/announce
  • udp://tracker.tiny-vps.com:6969/announce
  • udp://denis.stalker.upeer.me:6969/announce
  • udp://9.rarbg.me:2780/announce
  • udp://retracker.lanta-net.ru:2710/announce
  • udp://tracker.internetwarriors.net:1337/announce
  • udp://tracker.openbittorrent.com:80/announce\
  • udp://exodus.desync.com:6969/announce
  • udp://explodie.org:6969/announce
  • udp://tracker.filemail.com:6969/announce
  • udp://thetracker.org:80/announce

<< Poprzednia      Następna >>
1 - 1

Dodał: funia111 Data: 2019-10-09 22:44:37

Dziękuję

1 - 1
<< Poprzednia      Następna >>

Żaden z plików nie znajduje się na serwerze. Torrenty są własnością użytkowników. Administrator serwisu nie może ponieść konsekwencji za to co użytkownicy wstawiają, lub za to co czynią na stronie. Nie możesz używać tego serwisu do rozpowszechniania lub ściągania materiałów do których nie masz odpowiednich praw lub licencji. Użytkownicy odpowiedzialni są za przestrzeganie tych zasad.
Copyright © 2019 Ex-torrenty.org