Ex-torrenty.org
Bardzo ważna informacja
na stronie głównej dotycząca
rejestracji nowych użytkowników
TV / Kryminalny
Bnei Aruba aka Hostages [S02] [480p] [WEB] [XviD] [None] [Lektor PL]


Dodał: Jordan83
Data dodania:
2020-03-26 08:46:21
Rozmiar: 3.97 GB
Ostat. aktualizacja:
2020-03-26 09:30:01
Seedów: 8
Peerów: 246


Komentarze: 0

F_INFO

Produkcja: Izrael
Gatunek: Thriller
Twórcy: Omri Givon, Rotem Shamir
Premiera: 13.10.2013

F_OPIS

Nocą w domu lekarki, która ma nazajutrz operować premiera, pojawiają się uzbrojeni ludzie i stawiają ultimatum: ma uśmiercić pacjenta lub jej rodzina zginie.

F_OBSADA

https://i.postimg.cc/HktbZxtn/Fotoram-io-1.jpg

F_DANE

SUORCE: Bnei.Aruba-Hostages.S01.PL.720p.WEBRip.x264-666

Format : AVI
Format/Info : Audio Video Interleave
File size : 322 MiB
Duration : 38 min 14 s
Overall bit rate : 1 176 kb/s
Movie name : Bnei.Aruba-Hostages.S01E01.PL.720p.WEBRip.x264-666
Writing application : Lavf58.29.100

Video
ID : 0
Format : AVC
Format/Info : Advanced Video Codec
Format profile : High@L3
Format settings : CABAC / 4 Ref Frames
Format settings, CABAC : Yes
Format settings, ReFrames : 4 frames
Codec ID : H264
Duration : 38 min 14 s
Bit rate : 1 054 kb/s
Width : 850 pixels
Height : 480 pixels
Display aspect ratio : 16:9
Frame rate mode : Variable
Frame rate : 25.000 FPS
Color space : YUV
Chroma subsampling : 4:2:0
Bit depth : 8 bits
Scan type : Progressive
Bits/(Pixel*Frame) : 0.103
Stream size : 283 MiB (88%)
Title : Bnei.Aruba-Hostages.S01E01.PL.720p.WEBRip.x264-666
Writing library : x264 core 152 r2854 e9a5903
Encoding settings : cabac=1 / ref=1 / deblock=1:0:0 / analyse=0x3:0x3 / me=dia / subme=1 / psy=1 / psy_rd=1.00:0.00 / mixed_ref=0 / me_range=16 / chroma_me=1 / trellis=0 / 8x8dct=1 / cqm=0 / deadzone=21,11 / fast_pskip=1 / chroma_qp_offset=0 / threads=15 / lookahead_threads=2 / sliced_threads=0 / nr=0 / decimate=1 / interlaced=0 / bluray_compat=0 / constrained_intra=0 / bframes=3 / b_pyramid=2 / b_adapt=1 / b_bias=0 / direct=1 / weightb=1 / open_gop=0 / weightp=1 / keyint=250 / keyint_min=25 / scenecut=40 / intra_refresh=0 / rc=abr / mbtree=0 / bitrate=1054 / ratetol=1.0 / qcomp=0.60 / qpmin=0 / qpmax=69 / qpstep=4 / ip_ratio=1.40 / pb_ratio=1.30 / aq=1:1.00

Audio
ID : 1
Format : MPEG Audio
Format version : Version 1
Format profile : Layer 3
Format settings : Joint stereo / MS Stereo
Codec ID : 55
Codec ID/Hint : MP3
Duration : 38 min 14 s
Bit rate mode : Constant
Bit rate : 128 kb/s
Channel(s) : 2 channels
Sampling rate : 44.1 kHz
Compression mode : Lossy
Stream size : 35.0 MiB (11%)
Alignment : Aligned on interleaves
Interleave, duration : 26 ms (0.65 video frame)

Lista plików Show/Hide [Pokaż/Ukryj]
Trackery
  • udp://tracker.opentrackr.org:1337/announce
  • udp://opentrackr.org:1337/announce
  • udp://tracker.coppersurfer.tk:6969/announce
  • udp://tracker.pirateparty.gr:6969/announce
  • udp://tracker.tiny-vps.com:6969/announce
  • udp://retracker.lanta-net.ru:2710/announce
  • udp://9.rarbg.to:2710/announce
  • udp://9.rarbg.me:2780/announce
  • udp://exodus.desync.com:6969/announce
  • udp://tracker.torrent.eu.org:451/announce
  • udp://explodie.org:6969/announce
  • http://mail2.zelenaya.net:80/announce
  • udp://tracker.filemail.com:6969/announce
  • udp://denis.stalker.upeer.me:6969/announce
  • udp://tracker.internetwarriors.net:1337/announce

Komentarze są widoczne dla osób zalogowanych!

Żaden z plików nie znajduje się na serwerze. Torrenty są własnością użytkowników. Administrator serwisu nie może ponieść konsekwencji za to co użytkownicy wstawiają, lub za to co czynią na stronie. Nie możesz używać tego serwisu do rozpowszechniania lub ściągania materiałów do których nie masz odpowiednich praw lub licencji. Użytkownicy odpowiedzialni są za przestrzeganie tych zasad.
Copyright © 2020 Ex-torrenty.org