Ex-torrenty.org
Bardzo ważna informacja
na stronie głównej dotycząca
rejestracji nowych użytkowników
TV / Fantasy
Devs *2020* [S01E05] [1080p] [HULU] [WEB-DL] [DD2.0] [H264] [666] [Lektor PL]


Dodał: Jordan83
Data dodania:
2020-03-26 12:28:27
Rozmiar: 1.20 GB
Ostat. aktualizacja:
2020-04-04 15:32:52
Seedów: 89
Peerów: 5


Komentarze: 0

INFO

Produkcja... USA
Gatunek... Thriller, Sci-Fi
Twórca... Alex Garland
Premiera... 5.03.2020

OPIS

Devs opowiada o młodej programistce imieniem Lily Chan (Sonoya Mizuno), która pracuje dla korporacji Amaya. Po rzekomym samobójstwie jej chłopaka, Lily podejrzewa, że ktoś go zabił i rozpoczyna śledztwo. Wkrótce odkrywa, że wszystkie tropy prowadzą do Foresta (Nick Offerman), enigmatycznego prezesa Amayi i do tajemniczego działu Devs. Bohaterka odkrywa konspirację związaną z niesamowitą technologią, która może zmienić świat.
Reżyserem, scenarzystą, oraz producentem wykonawczym projektu jest Alex Garland, który pracował wcześniej przy takich hitach jak "Ex Machina", "Anihilacja" czy "28 dni później".

OBSADA

Karl Glusman ... Sergei
Zach Grenier ... Kenton
Nick Offerman ... Forest
Alison Pill ... Katie
Akshay Kumar ... Ray
Sonoya Mizuno ... Lily Chan

DANE

Format : Matroska
Format version : Version 4 / Version 2
File size : 1.10 GiB
Duration : 42 min 55 s
Overall bit rate : 3 677 kb/s
Encoded date : UTC 2020-03-12 14:29:38
Writing application : mkvmerge v39.0.0 ('In The Waiting Line') 64-bit
Writing library : libebml v1.3.9 + libmatroska v1.5.2

Video
ID : 1
Format : AVC
Format/Info : Advanced Video Codec
Format profile : High@L4
Format settings : CABAC / 4 Ref Frames
Format settings, CABAC : Yes
Format settings, ReFrames : 4 frames
Codec ID : V_MPEG4/ISO/AVC
Duration : 42 min 55 s
Bit rate : 3 356 kb/s
Width : 1 920 pixels
Height : 1 080 pixels
Display aspect ratio : 16:9
Frame rate mode : Constant
Frame rate : 23.976 (24000/1001) FPS
Color space : YUV
Chroma subsampling : 4:2:0
Bit depth : 8 bits
Scan type : Progressive
Bits/(Pixel*Frame) : 0.067
Stream size : 1.01 GiB (91%)
Language : English
Default : Yes
Forced : No

Audio
ID : 2
Format : AC-3
Format/Info : Audio Coding 3
Codec ID : A_AC3
Duration : 42 min 55 s
Bit rate mode : Constant
Bit rate : 320 kb/s
Channel(s) : 2 channels
Channel positions : Front: L R
Sampling rate : 48.0 kHz
Frame rate : 31.250 FPS (1536 SPF)
Bit depth : 16 bits
Compression mode : Lossy
Stream size : 98.2 MiB (9%)
Language : Polish
Service kind : Complete Main
Default : Yes
Forced : No

Lista plików Show/Hide [Pokaż/Ukryj]
Trackery
  • udp://tracker.opentrackr.org:1337/announce
  • udp://opentrackr.org:1337/announce
  • udp://retracker.lanta-net.ru:2710/announce
  • udp://tracker.tiny-vps.com:6969/announce
  • udp://9.rarbg.to:2710/announce
  • http://mail2.zelenaya.net:80/announce
  • udp://exodus.desync.com:6969/announce
  • udp://explodie.org:6969/announce
  • udp://tracker.torrent.eu.org:451/announce
  • udp://tracker.coppersurfer.tk:6969/announce
  • udp://tracker.pirateparty.gr:6969/announce
  • udp://tracker.filemail.com:6969/announce
  • udp://denis.stalker.upeer.me:6969/announce
  • udp://tracker.internetwarriors.net:1337/announce
  • udp://9.rarbg.me:2780/announce

Komentarze są widoczne dla osób zalogowanych!

Żaden z plików nie znajduje się na serwerze. Torrenty są własnością użytkowników. Administrator serwisu nie może ponieść konsekwencji za to co użytkownicy wstawiają, lub za to co czynią na stronie. Nie możesz używać tego serwisu do rozpowszechniania lub ściągania materiałów do których nie masz odpowiednich praw lub licencji. Użytkownicy odpowiedzialni są za przestrzeganie tych zasad.
Copyright © 2020 Ex-torrenty.org