Ex-torrenty.org
Bardzo ważna informacja
na stronie głównej dotycząca
rejestracji nowych użytkowników
4K UHD / Sci-Fi
Gwiezdne Wojny: Część VI - Powrót Jedi - Star Wars: Episode VI - Return of the Jedi (1983) [2160p.UHD.BDRemux.HEVC.TrueHD.7.1.Atmos.AC3-gix] [Dubbing, Lektor i Napisy PL]


Dodał: gixerk9
Data dodania:
2020-04-07 14:46:09
Rozmiar: 45.02 GB
Ostat. aktualizacja:
2020-04-23 20:03:05
Seedów: 19
Peerów: 28


Komentarze: 19

Info:

gatunek: Przygodowy, Sci-Fi
produkcja: USA
premiera: 18 kwietnia 1997 (Polska) 25 maja 1983 (świat)
reżyseria: Richard Marquand
scenariusz: George Lucas, Lawrence Kasdan

Obsada:

Mark Hamill - Luke Skywalker
Harrison Ford - Han Solo
Carrie Fisher - Księżniczka Leia Organa
Billy Dee Williams - Lando Calrissian
Anthony Daniels - C-3PO
Peter Mayhew - Chewbacca
Sebastian Shaw - Anakin Skywalker
Ian McDiarmid - Imperator Palpatine

Opis:

W niezwykle widowiskowym, finałowym rozdziale sagi Gwiezdnych Wojen, Luke Skywalker i Księżniczka Leia ratują Hana Solo uwięzionego na Tatooine przez najbardziej odrażającego gangstera w galaktyce zwanego Jabba the Hutt. Rebelianci wraz z plemieniem Ewoków walczą z siłami Imperium na zalesionym księżycu Endor. W tym samym czasie Imperator i Darth Vader próbują znaleźć sposób, by przeciągnąć Luke'a na ciemną stronę a z kolei młody Skywalker desperacko stara się obudzić w swym ojcu dawno uśpionego ducha Jedi. Galaktyczna wojna domowa znajduje swoją kulminację gdy połączone siły Rebeliantów atakują niedokończoną i bezbronną drugą Gwiazdę Śmierci w bitwie, która wpłynie na przyszłość całej galaktyki.

Screenshot:

https://i.imgur.com/y8nbLFh.png
https://i.imgur.com/c8gNLXn.png
https://i.imgur.com/CQcJYBA.png
https://i.imgur.com/YO8pFyi.png
https://i.imgur.com/chZRUyY.jpg

Dane Techniczne:

Format : Matroska
Format version : Version 2
File size : 45.0 GiB
Duration : 2 h 14 min
Overall bit rate mode : Variable
Overall bit rate : 47.8 Mb/s
Movie name : Star.Wars.Episode.VI.Return.of.the.Jedi.1983.2160p.BDRemux.HEVC.TrueHD.7.1.Atmos-gix
Encoded date : UTC 2020-04-07 09:23:56
Writing application : mkvmerge v5.7.0 ('The Whirlwind') built on Jul 8 2012 20:08:51
Writing library : libebml v1.2.3 + libmatroska v1.3.0

Video
ID : 1
Format : HEVC
Format/Info : High Efficiency Video Coding
Format profile : Main 10@L5.1@High
HDR format : SMPTE ST 2086, HDR10 compatible
Codec ID : V_MPEGH/ISO/HEVC
Duration : 2 h 14 min
Width : 3 840 pixels
Height : 2 160 pixels
Display aspect ratio : 16:9
Frame rate mode : Constant
Frame rate : 23.976 (24000/1001) FPS
Color space : YUV
Chroma subsampling : 4:2:0 (Type 2)
Bit depth : 10 bits
Title : Star.Wars.Episode.VI.Return.of.the.Jedi.1983.2160p.BDRemux.HEVC.TrueHD.7.1.Atmos-gix
Writing library : ATEME Titan File 3.9.0 (4.9.0.0)
Default : No
Forced : No
Color range : Limited
Color primaries : BT.2020
Transfer characteristics : PQ
Matrix coefficients : BT.2020 non-constant
Mastering display color primaries : BT.2020
Mastering display luminance : min: 0.0001 cd/m2, max: 1000 cd/m2

Audio #1
ID : 2
Format : AC-3
Format/Info : Audio Coding 3
Commercial name : Dolby Digital
Codec ID : A_AC3
Duration : 2 h 14 min
Bit rate mode : Constant
Bit rate : 448 kb/s
Channel(s) : 6 channels
Channel layout : L R C LFE Ls Rs
Sampling rate : 48.0 kHz
Frame rate : 31.250 FPS (1536 SPF)
Compression mode : Lossy
Stream size : 432 MiB (1%)
Title : Dubbing PL AC3 5.1
Language : Polish
Service kind : Complete Main
Default : Yes
Forced : No

Audio #2
ID : 3
Format : AC-3
Format/Info : Audio Coding 3
Commercial name : Dolby Digital
Codec ID : A_AC3
Duration : 2 h 14 min
Bit rate mode : Constant
Bit rate : 640 kb/s
Channel(s) : 6 channels
Channel layout : L R C LFE Ls Rs
Sampling rate : 48.0 kHz
Frame rate : 31.250 FPS (1536 SPF)
Compression mode : Lossy
Stream size : 617 MiB (1%)
Title : Lektor PL AC3 5.1
Language : Polish
Service kind : Complete Main
Default : No
Forced : No

Audio #3
ID : 4
Format : MLP FBA 16-ch
Format/Info : Meridian Lossless Packing FBA with 16-channel presentation
Commercial name : Dolby TrueHD with Dolby Atmos
Codec ID : A_TRUEHD
Duration : 2 h 14 min
Bit rate mode : Variable
Maximum bit rate : 5 523 kb/s
Channel(s) : 8 channels
Channel layout : L R C LFE Ls Rs Lb Rb
Sampling rate : 48.0 kHz
Frame rate : 1 200.000 FPS (40 SPF)
Compression mode : Lossless
Title : English Dolby TrueHD 7.1
Language : English
Default : No
Forced : No
Number of dynamic objects : 13
Bed channel count : 1 channel
Bed channel configuration : LFE

Audio #4
ID : 5
Format : AC-3
Format/Info : Audio Coding 3
Commercial name : Dolby Digital
Codec ID : A_AC3
Duration : 2 h 14 min
Bit rate mode : Constant
Bit rate : 640 kb/s
Channel(s) : 6 channels
Channel layout : L R C LFE Ls Rs
Sampling rate : 48.0 kHz
Frame rate : 31.250 FPS (1536 SPF)
Compression mode : Lossy
Stream size : 617 MiB (1%)
Title : English AC3 5.1
Language : English
Service kind : Complete Main
Default : No
Forced : No

Text #1
ID : 6
Format : PGS
Muxing mode : zlib
Codec ID : S_HDMV/PGS
Codec ID/Info : Picture based subtitle format used on BDs/HD-DVDs
Title : Napisy PL
Language : Polish
Default : No
Forced : No

Text #2
ID : 7
Format : PGS
Muxing mode : zlib
Codec ID : S_HDMV/PGS
Codec ID/Info : Picture based subtitle format used on BDs/HD-DVDs
Title : English
Language : English
Default : No
Forced : No

Lista plików Show/Hide [Pokaż/Ukryj]
Trackery
  • udp://tracker.opentrackr.org:1337/announce
  • udp://9.rarbg.com:2710/announce
  • udp://9.rarbg.me:2710/announce
  • http://tracker.filetracker.pl:8089/announce
  • udp://9.rarbg.to:2710/announce
  • http://retracker.local/announce
  • udp://tracker.leechers-paradise.org:6969/announce
  • udp://shadowshq.eddie4.nl:6969/announce
  • udp://tracker.coppersurfer.tk:6969/announce

Komentarze są widoczne dla osób zalogowanych!

Żaden z plików nie znajduje się na serwerze. Torrenty są własnością użytkowników. Administrator serwisu nie może ponieść konsekwencji za to co użytkownicy wstawiają, lub za to co czynią na stronie. Nie możesz używać tego serwisu do rozpowszechniania lub ściągania materiałów do których nie masz odpowiednich praw lub licencji. Użytkownicy odpowiedzialni są za przestrzeganie tych zasad.
Copyright © 2020 Ex-torrenty.org