Ex-torrenty.org
Bardzo ważna informacja
na stronie głównej dotycząca
rejestracji nowych użytkowników
x265 / Fantasy
Dolina Bogów - Valley Of The Gods 2019.[ENG][1080p][BluRay][x265][Napisy PL]


Dodał: Uploader
Data dodania:
2020-10-15 05:53:33
Rozmiar: 4.16 GB
Ostat. aktualizacja:
2020-12-31 00:04:08
Seedów: 20
Peerów: 28


Komentarze: 2

⭐ Film Wstawiony na Prośbę !!! ⭐

...( Info )...

reżyseria
Lech Majewski
scenariusz
Lech Majewski
gatunek
Fantasy
produkcja
Luksemburg / Polska / USA
premiera
21 sierpnia 2020 (Polska) / 17 września 2019 (świat)

...( Opis )...

W tytułowej Dolinie Bogów krzyżują się trzy wątki narracyjne, które prowokują widza do własnych interpretacji. Pierwszy to archaiczna legenda Indian Navajo o bogach zamkniętych w skałach doliny Valley of the Gods pełna bogatej symboliki i archetypów. Drugi to historia najbogatszego człowieka globu, tajemniczego Wesa Taurosa (John Malkovich), który dotknięty osobistą tragedią, ukrywa się przed światem. Trzeci wątek jest historią narratora, Johna Ecasa (Josh Hartnett), pisarza, który zmaga się z traumatycznym rozstaniem z żoną i twórczym kryzysem. W tym czasie firma Taurosa eksploatująca rudę uranu przejmuje Dolinę Bogów, gdzie planuje drążyć tunele w świętej ziemi. Spokój przodków Navajo zostaje zburzony a skały rodzą mściciela. Widz pozostaje z pytaniami: Jak daleko można posunąć się dla miłości? Jakie tajemnice skrywa mityczna ziemia Navajo?

...( Obsada )...

Josh Hartnett / John Ecas
John Malkovich / Wes Tauros
Bérénice Marlohe / Karen Kitson
Keir Dullea / Ulim
John Rhys-Davies / Dr Hermann
Jaime Ray Newman / Laura Ecas
Joseph Runningfox / Trzecie Oko
Steven Skyler / Szary Koń
John A. Lorenz / Ptasia Twarz

...( Dane Techniczne )...

Valley Of The Gods 2019.[ENG][1080p][BluRay][x265][Napisy PL]
Format           : Matroska
Format version       : Version 4
File size          : 4.16 GiB
Duration          : 2 h 6 min
Overall bit rate mode    : Variable
Overall bit rate      : 4 698 kb/s
Encoded date        : UTC 2020-10-14 12:04:43
Writing application     : mkvmerge v49.0.0 ('Sick Of Losing Soulmates') 64-bit
Writing library       : libebml v1.4.0 + libmatroska v1.6.1

Video
ID             : 2
Format           : HEVC
Format/Info         : High Efficiency Video Coding
Format profile       : Main 10@L4@Main
Codec ID          : V_MPEGH/ISO/HEVC
Duration          : 2 h 6 min
Bit rate          : 2 000 kb/s
Width            : 1 920 pixels
Height           : 804 pixels
Display aspect ratio    : 2.40:1
Frame rate mode       : Constant
Frame rate         : 24.000 FPS
Color space         : YUV
Chroma subsampling     : 4:2:0
Bit depth          : 10 bits
Bits/(Pixel*Frame)     : 0.054
Stream size         : 1.77 GiB (43%)
Default           : Yes
Forced           : No

Audio
ID             : 3
Format           : DTS XLL
Format/Info         : Digital Theater Systems
Commercial name       : DTS-HD Master Audio
Codec ID          : A_DTS
Duration          : 2 h 6 min
Bit rate mode        : Variable
Bit rate          : 2 694 kb/s
Channel(s)         : 6 channels
Channel layout       : C L R Ls Rs LFE
Sampling rate        : 48.0 kHz
Frame rate         : 93.750 FPS (512 SPF)
Bit depth          : 16 bits
Compression mode      : Lossless
Stream size         : 2.38 GiB (57%)
Language          : English
Default           : Yes
Forced           : No

Text
ID             : 1
Format           : UTF-8
Codec ID          : S_TEXT/UTF8
Codec ID/Info        : UTF-8 Plain Text
Duration          : 1 h 58 min
Bit rate          : 19 b/s
Count of elements      : 582
Stream size         : 17.1 KiB (0%)
Language          : Polish
Default           : Yes
Forced           : No

Lista plików Show/Hide [Pokaż/Ukryj]
Trackery
  • udp://valakas.rollo.dnsabr.com:2710/announce
  • udp://tracker.uw0.xyz:6969/announce
  • udp://retracker.lanta-net.ru:2710/announce
  • udp://open.stealth.si:80/announce
  • udp://p4p.arenabg.com:1337/announce
  • udp://tracker.zum.bi:6969/announce
  • udp://exodus.desync.com:6969/announce
  • udp://tracker.zerobytes.xyz:1337/announce
  • http://open.acgnxtracker.com:80/announce
  • udp://tracker.opentrackr.org:1337/announce
  • udp://tracker.openbittorrent.com:80/announce
  • http://explodie.org:6969/announce
  • udp://explodie.org:6969/announce
  • udp://ipv4.tracker.harry.lu:80/announce
  • udp://tracker.iamhansen.xyz:2000/announce
  • udp://tracker.birkenwald.de:6969/announce
  • http://tracker.devil-torrents.pl/announce
  • udp://chihaya.toss.li:9696/announce
  • https://tracker.devil-torrents.pl/announce
  • udp://9.rarbg.me:2780/announce
  • udp://tracker.publicbt.com:80/announce
  • udp://9.rarbg.to:2710/announce
  • udp://tracker.leechers-paradise.org:6969/announce
  • http://tracker.port443.xyz:6969/announce
  • http://public.popcorn-tracker.org:6969/announce
  • http://tracker.torrentyorg.pl/announce
  • http://tracker.electro-torrent.pl:80/announce
  • udp://ipv6.tracker.zerobytes.xyz:16661/announce

Komentarze są widoczne dla osób zalogowanych!

Żaden z plików nie znajduje się na serwerze. Torrenty są własnością użytkowników. Administrator serwisu nie może ponieść konsekwencji za to co użytkownicy wstawiają, lub za to co czynią na stronie. Nie możesz używać tego serwisu do rozpowszechniania lub ściągania materiałów do których nie masz odpowiednich praw lub licencji. Użytkownicy odpowiedzialni są za przestrzeganie tych zasad.
Copyright © 2021 Ex-torrenty.org