Ex-torrenty.org
Bardzo ważna informacja
na stronie głównej dotycząca
rejestracji nowych użytkowników
x265 / Dramat
Witaj w Klubie - Dallas.Buyers.Club.2013.[ENG][1080p][BluRay][x265][Napisy PL]


Dodał: Uploader
Data dodania:
2020-10-17 07:20:43
Rozmiar: 1.82 GB
Ostat. aktualizacja:
2020-12-25 15:52:38
Seedów: 0
Peerów: 23


Komentarze: 1

⭐ Film Wstawiony na Prośbę !!! ⭐

...( Info )...

reżyseria
Jean-Marc Vallée
scenariusz
Craig Borten / Melisa Wallack
gatunek
Biograficzny / Dramat
produkcja
USA
premiera
7 września 2013 (świat)

...( Opis )...

Pełna humoru, inspirowana prawdziwymi wydarzeniami historia człowieka, który nie zamierza żegnać się z życiem. Ron żyje z dnia na dzień. Pali jak smok, lubi bourbon, kobiety i rodeo. Nic ponad szybkie i proste przyjemności. Wiadomość o tym, że jest nosicielem wirusa HIV to dla niego szokujący wyrok, z którym nie chce się pogodzić. Jedzie do Meksyku, z którego zamierza szmuglować zakazane w USA leki. Po powrocie niespodziewanie zdobywa sojusznika w osobie queerowego transwestyty Rayona. Ten pozornie niedobrany duet wspólnie zaczyna prowadzić klub, w którym inni szukają ratunku.

...( Obsada )...

Matthew McConaughey / Ron Woodroof
Jennifer Garner / Dr Eve Saks
Jared Leto / Rayon
Denis O'Hare / Dr Sevard
Steve Zahn / Tucker
Michael O'Neill / Richard Barkley

...( Dane Techniczne )...

Dallas.Buyers.Club.2013.[ENG][1080p][BluRay][x265][Napisy PL].mkv
Format           : Matroska
Format version       : Version 4
File size          : 1.82 GiB
Duration          : 1 h 56 min
Overall bit rate      : 2 226 kb/s
Encoded date        : UTC 2020-10-16 06:14:42
Writing application     : mkvmerge v49.0.0 ('Sick Of Losing Soulmates') 64-bit
Writing library       : libebml v1.4.0 + libmatroska v1.6.1

Video
ID             : 1
Format           : HEVC
Format/Info         : High Efficiency Video Coding
Format profile       : Main 10@L4@Main
Codec ID          : V_MPEGH/ISO/HEVC
Duration          : 1 h 56 min
Bit rate          : 2 000 kb/s
Width            : 1 920 pixels
Height           : 800 pixels
Display aspect ratio    : 2.40:1
Frame rate mode       : Constant
Frame rate         : 23.976 (24000/1001) FPS
Color space         : YUV
Chroma subsampling     : 4:2:0
Bit depth          : 10 bits
Bits/(Pixel*Frame)     : 0.054
Stream size         : 1.63 GiB (90%)
Default           : Yes
Forced           : No

Audio
ID             : 2
Format           : AAC LC
Format/Info         : Advanced Audio Codec Low Complexity
Codec ID          : A_AAC-2
Duration          : 1 h 56 min
Bit rate          : 224 kb/s
Channel(s)         : 6 channels
Channel layout       : C L R Ls Rs LFE
Sampling rate        : 48.0 kHz
Frame rate         : 46.875 FPS (1024 SPF)
Compression mode      : Lossy
Delay relative to video   : 41 ms
Stream size         : 187 MiB (10%)
Language          : English
Default           : Yes
Forced           : No

Text
ID             : 3
Format           : UTF-8
Codec ID          : S_TEXT/UTF8
Codec ID/Info        : UTF-8 Plain Text
Duration          : 1 h 49 min
Bit rate          : 60 b/s
Count of elements      : 1403
Stream size         : 48.5 KiB (0%)
Language          : Polish
Default           : Yes
Forced           : No

Lista plików Show/Hide [Pokaż/Ukryj]
Trackery
  • udp://valakas.rollo.dnsabr.com:2710/announce
  • udp://tracker.opentrackr.org:1337/announce
  • udp://tracker.openbittorrent.com:80/announce
  • udp://retracker.lanta-net.ru:2710/announce
  • udp://tracker.uw0.xyz:6969/announce
  • udp://open.stealth.si:80/announce
  • udp://tracker.zerobytes.xyz:1337/announce
  • udp://exodus.desync.com:6969/announce
  • udp://tracker.zum.bi:6969/announce
  • http://open.acgnxtracker.com:80/announce
  • udp://p4p.arenabg.com:1337/announce
  • udp://tracker.leechers-paradise.org:6969/announce
  • udp://explodie.org:6969/announce
  • udp://tracker.iamhansen.xyz:2000/announce
  • udp://tracker.birkenwald.de:6969/announce
  • http://tracker.devil-torrents.pl/announce
  • udp://chihaya.toss.li:9696/announce
  • https://tracker.devil-torrents.pl/announce
  • udp://9.rarbg.me:2780/announce
  • udp://tracker.publicbt.com:80/announce
  • http://explodie.org:6969/announce
  • udp://9.rarbg.to:2710/announce
  • udp://ipv4.tracker.harry.lu:80/announce
  • http://tracker.port443.xyz:6969/announce
  • http://public.popcorn-tracker.org:6969/announce
  • http://tracker.torrentyorg.pl/announce
  • http://tracker.electro-torrent.pl:80/announce
  • udp://ipv6.tracker.zerobytes.xyz:16661/announce

Komentarze są widoczne dla osób zalogowanych!

Żaden z plików nie znajduje się na serwerze. Torrenty są własnością użytkowników. Administrator serwisu nie może ponieść konsekwencji za to co użytkownicy wstawiają, lub za to co czynią na stronie. Nie możesz używać tego serwisu do rozpowszechniania lub ściągania materiałów do których nie masz odpowiednich praw lub licencji. Użytkownicy odpowiedzialni są za przestrzeganie tych zasad.
Copyright © 2021 Ex-torrenty.org