Ex-torrenty.org
Bardzo ważna informacja
na stronie głównej dotycząca
rejestracji nowych użytkowników
4K UHD / Gangsterski
Scarface (1983) [UHD Blu-ray disc 2160p x265 HEVC EUR] [Lektor PL]


Dodał: elladajarek
Data dodania:
2020-11-14 10:23:55
Rozmiar: 87.50 GB
Ostat. aktualizacja:
2021-03-29 23:10:48
Seedów: 0
Peerów: 0


Komentarze: 0

Produkcja: USA
Gatunek: Dramat, Gangsterski
Premiera: 1 grudnia 1983 (świat)
Reżyseria: Brian De Palma
Scenariusz: Ben Hecht, Howard Hawks

W 1980 roku rząd Fidela Castro, podczas akcji łączenia rodzin, pozbył się przy okazji dwudziestu pięciu tysięcy kryminalistów, których przymusowo deportowano do Stanów Zjednoczonych. Jednym z nich był Anthony "Tony" Montana (Al Pacino), zwany "Caracortada", który ma wytatuowany na ręce znak, oznaczający w przestępczym kodzie mordercę.

Obsada:

★ Al Pacino .... Tony Montana
★ Steven Bauer .... Manny Ribera
★ Michelle Pfeiffer .... Elvira Hancock
★ Mary Elizabeth Mastrantonio .... Gina Montana
★ Robert Loggia .... Frank Lopez
★ Miriam Colon .... Mama Montana
★ F. Murray Abraham .... Omar Suarez
★ Paul Shenar .... Alejandro Sosa

Dane techniczne:

Video: MPEG-H HEVC Video 52344 kbps 2160p / 23.976 fps / 16:9 / Main 10 @ Level 5.1 @ High / 10 bits / HDR10 / BT.2020
Audio 1: DTS:X Master Audio English 5793 kbps 7.1 / 48 kHz / 5793 kbps / 24-bit (DTS Core: 5.1 / 48 kHz / 1509 kbps / 24-bit)
Audio 2: DTS Audio English 768 kbps 2.0 / 48 kHz / 768 kbps / 24-bit
Audio 3: DTS Audio French 448 kbps 2.0 / 48 kHz / 448 kbps / 24-bit
Audio 4: DTS Audio Russian 448 kbps 2.0 / 48 kHz / 448 kbps / 24-bit
Audio 5: DTS Audio Czech 448 kbps 2.0 / 48 kHz / 448 kbps / 24-bit
Audio 6: DTS Audio Hungarian 448 kbps 2.0 / 48 kHz / 448 kbps / 24-bit
Audio 7: DTS Audio Polish 448 kbps 2.0 / 48 kHz / 448 kbps / 24-bit


Format : Blu-ray Playlist
File size : 1.06 KiB
Duration : 2 h 49 min
Overall bit rate mode : Variable
Overall bit rate : 1 b/s

Video
ID : 4113 (0x1011)
Menu ID : 1 (0x1)
Format : HEVC
Format/Info : High Efficiency Video Coding
Format profile : Main [email protected]@High
HDR format : SMPTE ST 2086, HDR10 compatible
Codec ID : 36
Duration : 2 h 49 min
Width : 3 840 pixels
Height : 2 160 pixels
Display aspect ratio : 16:9
Frame rate : 23.976 (24000/1001) FPS
Color space : YUV
Chroma subsampling : 4:2:0 (Type 2)
Bit depth : 10 bits
Writing library : ATEME Titan File 3.8.16 (4.8.16.0)
Color range : Limited
Color primaries : BT.2020
Transfer characteristics : PQ
Matrix coefficients : BT.2020 non-constant
Mastering display color primar : Display P3
Mastering display luminance : min: 0.0050 cd/m2, max: 1000 cd/m2
Maximum Content Light Level : 1000 cd/m2
Maximum Frame-Average Light Le : 155 cd/m2
format_identifier : HDMV
Source : 00000.m2ts

Audio #1
ID : 4352 (0x1100)
Menu ID : 1 (0x1)
Format : DTS XLL X
Format/Info : Digital Theater Systems
Commercial name : DTS-HD Master Audio
Muxing mode : Stream extension
Codec ID : 134
Duration : 2 h 49 min
Bit rate mode : Variable
Channel(s) : Object Based
Channel layout : Object Based
Sampling rate : 48.0 kHz
Frame rate : 93.750 FPS (512 SPF)
Language : English
Source : 00000.m2ts

Audio #2
ID : 4353 (0x1101)
Menu ID : 1 (0x1)
Format : DTS
Format/Info : Digital Theater Systems
Codec ID : 130
Duration : 2 h 49 min
Bit rate mode : Constant
Bit rate : 768 kb/s
Channel(s) : 2 channels
Channel layout : Lt Rt
Sampling rate : 48.0 kHz
Frame rate : 93.750 FPS (512 SPF)
Bit depth : 24 bits
Compression mode : Lossy
Stream size : 933 MiB
Language : English
Source : 00000.m2ts

Audio #3
ID : 4354 (0x1102)
Menu ID : 1 (0x1)
Format : DTS
Format/Info : Digital Theater Systems
Codec ID : 130
Duration : 2 h 49 min
Bit rate mode : Constant
Bit rate : 447 kb/s
Channel(s) : 2 channels
Channel layout : L R
Sampling rate : 48.0 kHz
Frame rate : 93.750 FPS (512 SPF)
Bit depth : 24 bits
Compression mode : Lossy
Stream size : 543 MiB
Language : French
Source : 00000.m2ts

Audio #4
ID : 4355 (0x1103)
Menu ID : 1 (0x1)
Format : DTS
Format/Info : Digital Theater Systems
Codec ID : 130
Duration : 2 h 49 min
Bit rate mode : Constant
Bit rate : 447 kb/s
Channel(s) : 2 channels
Channel layout : L R
Sampling rate : 48.0 kHz
Frame rate : 93.750 FPS (512 SPF)
Bit depth : 24 bits
Compression mode : Lossy
Stream size : 543 MiB
Language : Russian
Source : 00000.m2ts

Audio #5
ID : 4356 (0x1104)
Menu ID : 1 (0x1)
Format : DTS
Format/Info : Digital Theater Systems
Codec ID : 130
Duration : 2 h 49 min
Bit rate mode : Constant
Bit rate : 447 kb/s
Channel(s) : 2 channels
Channel layout : L R
Sampling rate : 48.0 kHz
Frame rate : 93.750 FPS (512 SPF)
Bit depth : 24 bits
Compression mode : Lossy
Stream size : 543 MiB
Language : Czech
Source : 00000.m2ts

Audio #6
ID : 4357 (0x1105)
Menu ID : 1 (0x1)
Format : DTS
Format/Info : Digital Theater Systems
Codec ID : 130
Duration : 2 h 49 min
Bit rate mode : Constant
Bit rate : 447 kb/s
Channel(s) : 2 channels
Channel layout : L R
Sampling rate : 48.0 kHz
Frame rate : 93.750 FPS (512 SPF)
Bit depth : 24 bits
Compression mode : Lossy
Stream size : 543 MiB
Language : Hungarian
Source : 00000.m2ts

Audio #7
ID : 4358 (0x1106)
Menu ID : 1 (0x1)
Format : DTS
Format/Info : Digital Theater Systems
Codec ID : 130
Duration : 2 h 49 min
Bit rate mode : Constant
Bit rate : 447 kb/s
Channel(s) : 2 channels
Channel layout : Lt Rt
Sampling rate : 48.0 kHz
Frame rate : 93.750 FPS (512 SPF)
Bit depth : 24 bits
Compression mode : Lossy
Stream size : 543 MiB
Language : Polish
Source : 00000.m2ts

Text #1
ID : 4768 (0x12A0)
Menu ID : 1 (0x1)
Format : PGS
Codec ID : 144
Duration : 2 h 49 min
Delay relative to video : 19 s 561 ms
Language : English
Source : 00000.m2ts

Text #2
ID : 4769 (0x12A1)
Menu ID : 1 (0x1)
Format : PGS
Codec ID : 144
Duration : 2 h 49 min
Delay relative to video : 19 s 478 ms
Language : French
Source : 00000.m2ts

Text #3
ID : 4770 (0x12A2)
Menu ID : 1 (0x1)
Format : PGS
Codec ID : 144
Duration : 2 h 49 min
Delay relative to video : 19 s 478 ms
Language : Dutch
Source : 00000.m2ts

Text #4
ID : 4771 (0x12A3)
Menu ID : 1 (0x1)
Format : PGS
Codec ID : 144
Duration : 2 h 49 min
Delay relative to video : 19 s 478 ms
Language : Danish
Source : 00000.m2ts

Text #5
ID : 4772 (0x12A4)
Menu ID : 1 (0x1)
Format : PGS
Codec ID : 144
Duration : 2 h 49 min
Delay relative to video : 19 s 478 ms
Language : Finnish
Source : 00000.m2ts

Text #6
ID : 4773 (0x12A5)
Menu ID : 1 (0x1)
Format : PGS
Codec ID : 144
Duration : 2 h 49 min
Delay relative to video : 19 s 478 ms
Language : Norwegian
Source : 00000.m2ts

Text #7
ID : 4774 (0x12A6)
Menu ID : 1 (0x1)
Format : PGS
Codec ID : 144
Duration : 2 h 49 min
Delay relative to video : 19 s 478 ms
Language : Swedish
Source : 00000.m2ts

Text #8
ID : 4775 (0x12A7)
Menu ID : 1 (0x1)
Format : PGS
Codec ID : 144
Duration : 2 h 49 min
Delay relative to video : 19 s 644 ms
Language : Russian
Source : 00000.m2ts

Text #9
ID : 4776 (0x12A8)
Menu ID : 1 (0x1)
Format : PGS
Codec ID : 144
Duration : 2 h 49 min
Delay relative to video : 19 s 478 ms
Language : Czech
Source : 00000.m2ts

Text #10
ID : 4777 (0x12A9)
Menu ID : 1 (0x1)
Format : PGS
Codec ID : 144
Duration : 2 h 49 min
Delay relative to video : 19 s 478 ms
Language : Hungarian
Source : 00000.m2ts

Text #11
ID : 4778 (0x12AA)
Menu ID : 1 (0x1)
Format : PGS
Codec ID : 144
Duration : 2 h 49 min
Delay relative to video : 19 s 478 ms
Language : Polish
Source : 00000.m2ts

Text #12
ID : 4779 (0x12AB)
Menu ID : 1 (0x1)
Format : PGS
Codec ID : 144
Duration : 2 h 49 min
Delay relative to video : 19 s 478 ms
Language : Greek
Source : 00000.m2ts

Text #13
ID : 4780 (0x12AC)
Menu ID : 1 (0x1)
Format : PGS
Codec ID : 144
Duration : 2 h 49 min
Delay relative to video : 19 s 561 ms
Language : Romanian
Source : 00000.m2ts

Text #14
ID : 4781 (0x12AD)
Menu ID : 1 (0x1)
Format : PGS
Codec ID : 144
Duration : 2 h 49 min
Delay relative to video : 19 s 561 ms
Language : English
Source : 00000.m2ts

Text #15
ID : 4782 (0x12AE)
Menu ID : 1 (0x1)
Format : PGS
Codec ID : 144
Duration : 2 h 49 min
Delay relative to video : 19 s 478 ms
Language : French
Source : 00000.m2ts

Text #16
ID : 4783 (0x12AF)
Menu ID : 1 (0x1)
Format : PGS
Codec ID : 144
Duration : 2 h 49 min
Language : Czech
Source : 00000.m2ts

Text #17
ID : 4784 (0x12B0)
Menu ID : 1 (0x1)
Format : PGS
Codec ID : 144
Duration : 2 h 49 min
Language : Hungarian
Source : 00000.m2ts

Menu
00:00:00.000 : Chapter 1
00:08:11.574 : Chapter 2
00:10:55.237 : Chapter 3
00:13:40.194 : Chapter 4
00:15:43.025 : Chapter 5
00:20:58.298 : Chapter 6
00:29:51.289 : Chapter 7
00:33:09.362 : Chapter 8
00:34:42.538 : Chapter 9
00:43:13.173 : Chapter 10
00:46:46.053 : Chapter 11
00:50:45.250 : Chapter 12
00:59:02.705 : Chapter 13
01:04:15.643 : Chapter 14
01:08:20.471 : Chapter 15
01:12:57.539 : Chapter 16
01:17:17.841 : Chapter 17
01:23:33.133 : Chapter 18
01:28:48.323 : Chapter 19
01:33:44.243 : Chapter 20
01:43:31.496 : Chapter 21
01:47:01.706 : Chapter 22
01:51:48.410 : Chapter 23
01:57:19.991 : Chapter 24
02:02:43.105 : Chapter 25
02:07:08.203 : Chapter 26
02:13:58.405 : Chapter 27
02:16:04.447 : Chapter 28
02:21:46.080 : Chapter 29
02:24:22.779 : Chapter 30
02:30:37.862 : Chapter 31
02:35:14.888 : Chapter 32
02:37:33.068 : Chapter 33
02:40:04.303 : Chapter 34
02:43:20.999 : Chapter 35
02:49:51.181 : Chapter 36

Lista plików Show/Hide [Pokaż/Ukryj]
Trackery Show/Hide [Pokaż/Ukryj]

Komentarze są widoczne dla osób zalogowanych!

Żaden z plików nie znajduje się na serwerze. Torrenty są własnością użytkowników. Administrator serwisu nie może ponieść konsekwencji za to co użytkownicy wstawiają, lub za to co czynią na stronie. Nie możesz używać tego serwisu do rozpowszechniania lub ściągania materiałów do których nie masz odpowiednich praw lub licencji. Użytkownicy odpowiedzialni są za przestrzeganie tych zasad.
Copyright © 2022 Ex-torrenty.org