Ex-torrenty.org
Bardzo ważna informacja
na stronie głównej dotycząca
rejestracji nowych użytkowników
x265 / Gangsterski
The Godfather Part I (1972) The Coppola Restoration [BDRip 1080p x265 10bit HEVC] [MultiSub - Lektor PL] [elladajarek]


Dodał: elladajarek
Data dodania:
2020-11-20 11:39:08
Rozmiar: 5.55 GB
Ostat. aktualizacja:
2021-01-03 23:28:09
Seedów: 8
Peerów: 6


Komentarze: 3

Produkcja: USA
Gatunek: Kryminał, Dramat, Gangsterski
Premiera: 31 grudnia 1972 (Polska) 15 marca 1972 (świat)
Reżyseria: Francis Ford Coppola
Scenariusz: Francis Ford Coppola, Mario Puzo
Czas trwania: 02:57:09

USA, koniec II wojny światowej. Szefem nowojorskiej mafii jest sędziwy Don Vito Corleone (Marlon Brando), a jego pomocnikami są synowie: Sonny (James Caan) i Fredo (John Cazale) oraz inteligentny i rozważny Irlandczyk, Tom Hagen (Robert Duvall). Trzeci syn Vito, Michael (Al Pacino), absolwent wyższej uczelni, jest przeciwny działalności ojca. Pewnego dnia rodzina Corleone, odmawiając udziału w dystrybucji narkotyków, staje się niepotrzebną przeszkodą dla innych mafii. Dochodzi do nieudanego zamachu na Dona Corleone, a następnie do "wielkiej wojny" nowojorskich gangów, w której niespodziewanie odegra kluczową rolę Michael.

Obsada:

* Marlon Brando...Don Vito Corleone
* Al Pacino...Michael Corleone
* James Caan...Sonny Corleone
* Richard S. Castellano...Peter Clemenza
* Robert Duvall...Tom Hagen
* Sterling Hayden...Kapitan policji McCluskey
* John Marley...Jack Woltz
* Richard Conte...Don Emilio Barzini

Dane Techniczne:

Format : Matroska
Format version : Version 4
File size : 5.55 GiB
Duration : 2 h 57 min
Overall bit rate : 4 487 kb/s
Writing application : mkvmerge v51.0.0 ('I Wish') 64-bit
Writing library : libebml v1.4.0 + libmatroska v1.6.2

Video
ID : 1
Format : HEVC
Format/Info : High Efficiency Video Coding
Format profile : Main 10@L4@Main
Codec ID : V_MPEGH/ISO/HEVC
Duration : 2 h 57 min
Bit rate : 3 204 kb/s
Width : 1 920 pixels
Height : 1 080 pixels
Display aspect ratio : 16:9
Frame rate mode : Constant
Frame rate : 23.976 (24000/1001) FPS
Color space : YUV
Chroma subsampling : 4:2:0
Bit depth : 10 bits
Bits/(Pixel*Frame) : 0.064
Stream size : 3.96 GiB (71%)
Default : Yes
Forced : No
Color range : Limited
Color primaries : BT.709
Transfer characteristics : BT.709
Matrix coefficients : BT.709

Audio #1
ID : 2
Format : AC-3
Format/Info : Audio Coding 3
Commercial name : Dolby Digital
Codec ID : A_AC3
Duration : 2 h 57 min
Bit rate mode : Constant
Bit rate : 640 kb/s
Channel(s) : 6 channels
Channel layout : L R C LFE Ls Rs
Sampling rate : 48.0 kHz
Frame rate : 31.250 FPS (1536 SPF)
Compression mode : Lossy
Stream size : 811 MiB (14%)
Language : Polish
Service kind : Complete Main
Default : Yes
Forced : Yes

Audio #2
ID : 3
Format : AC-3
Format/Info : Audio Coding 3
Commercial name : Dolby Digital
Codec ID : A_AC3
Duration : 2 h 57 min
Bit rate mode : Constant
Bit rate : 640 kb/s
Channel(s) : 6 channels
Channel layout : L R C LFE Ls Rs
Sampling rate : 48.0 kHz
Frame rate : 31.250 FPS (1536 SPF)
Compression mode : Lossy
Stream size : 811 MiB (14%)
Language : English
Service kind : Complete Main
Default : No
Forced : No

Text #1
ID : 4
Format : UTF-8
Codec ID : S_TEXT/UTF8
Codec ID/Info : UTF-8 Plain Text
Duration : 2 h 51 min
Bit rate : 36 b/s
Count of elements : 1286
Stream size : 45.8 KiB (0%)
Language : Polish
Default : Yes
Forced : No

Text #2
ID : 5
Format : UTF-8
Codec ID : S_TEXT/UTF8
Codec ID/Info : UTF-8 Plain Text
Duration : 2 h 51 min
Bit rate : 42 b/s
Count of elements : 1312
Stream size : 53.1 KiB (0%)
Title : Eng
Language : English
Default : No
Forced : No

Menu
00:00:00.000 : en:Chapter 01
00:07:30.783 : en:Chapter 02
00:18:03.624 : en:Chapter 03
00:27:03.455 : en:Chapter 04
00:34:20.183 : en:Chapter 05
00:40:17.748 : en:Chapter 06
00:48:52.304 : en:Chapter 07
00:58:18.328 : en:Chapter 08
01:08:44.578 : en:Chapter 09
01:15:49.002 : en:Chapter 10
01:30:00.686 : en:Chapter 11
01:37:06.862 : en:Chapter 12
01:46:18.163 : en:Chapter 13
01:49:30.188 : en:Chapter 14
01:53:57.664 : en:Chapter 15
02:03:21.310 : en:Chapter 16
02:06:37.256 : en:Chapter 17
02:13:28.125 : en:Chapter 18
02:19:47.462 : en:Chapter 19
02:25:56.706 : en:Chapter 20
02:36:56.031 : en:Chapter 21
02:44:43.540 : en:Chapter 22
02:53:05.750 : en:Chapter 23

Lista plików Show/Hide [Pokaż/Ukryj]
Trackery
  • udp://tracker.opentrackr.org:1337/announce
  • udp://open.demonii.si:1337/announce
  • udp://tracker.torrent.eu.org:451/announce
  • udp://tracker.cyberia.is:6969/announce
  • udp://exodus.desync.com:6969/announce
  • udp://tracker.internetwarriors.net:1337/announce
  • udp://tracker.leechers-paradise.org:6969/announce
  • udp://tracker.iamhansen.xyz:2000/announce
  • udp://9.rarbg.me:2710/announce
  • udp://9.rarbg.to:2710/announce
  • udp://ipv4.tracker.harry.lu:80/announce
  • udp://explodie.org:6969/announce
  • udp://denis.stalker.upeer.me:6969/announce
  • udp://tracker.coppersurfer.tk:6969/announce
  • udp://tracker.pirateparty.gr:6969/announce

Komentarze są widoczne dla osób zalogowanych!

Żaden z plików nie znajduje się na serwerze. Torrenty są własnością użytkowników. Administrator serwisu nie może ponieść konsekwencji za to co użytkownicy wstawiają, lub za to co czynią na stronie. Nie możesz używać tego serwisu do rozpowszechniania lub ściągania materiałów do których nie masz odpowiednich praw lub licencji. Użytkownicy odpowiedzialni są za przestrzeganie tych zasad.
Copyright © 2021 Ex-torrenty.org