Ex-torrenty.org
Bardzo ważna informacja
na stronie głównej dotycząca
rejestracji nowych użytkowników
x265 / Gangsterski
The Godfather Part III (1990) The Coppola Restoration [BDRip 1080p x265 10bit HEVC] [MultiSub - Lektor PL] [elladajarek]


Dodał: elladajarek
Data dodania:
2020-11-21 19:05:37
Rozmiar: 5.36 GB
Ostat. aktualizacja:
2020-11-23 22:16:45
Seedów: 22
Peerów: 36


Komentarze: 2

Produkcja: USA
Gatunek: Dramat, Gangsterski
Premiera: 31 grudnia 1990 (Polska), 20 grudnia 1990 (świat)
Reżyseria: Francis Ford Coppola
Scenariusz: Francis Ford Coppola, Mario Puzo
Czas trwania: 02:50:15

W części trzeciej "Ojca chrzestnego", Don Michael Corleone (Al Pacino) jest już człowiekiem starym. Zalegalizował swe interesy, zerwał z niebezpiecznym trybem życia. Jest szanowanym obywatelem, nie skąpiącym dolarów na szlachetne cele, za co szczególnie go ceni najwyższa hierarchia kościelna. Ale przed przeszłością nie ma ucieczki..

Obsada:

★ Al Pacino .... Michael Corleone
★ Diane Keaton .... Kay Adams
★ Talia Shire .... Constanzia "Connie" Corleone
★ Andy Garcia .... Vincent Mancini
★ Eli Wallach .... Don Altobello
★ Joe Mantegna .... Joey Zasa
★ George Hamilton .... B.J. Harrison
★ Sofia Coppola .... Mary Corleone

Dane Techniczne:

Format : Matroska
Format version : Version 4
File size : 5.36 GiB
Duration : 2 h 50 min
Overall bit rate : 4 509 kb/s
Writing application : mkvmerge v51.0.0 ('I Wish') 64-bit
Writing library : libebml v1.4.0 + libmatroska v1.6.2

Video
ID : 1
Format : HEVC
Format/Info : High Efficiency Video Coding
Format profile : Main 10@L4@Main
Codec ID : V_MPEGH/ISO/HEVC
Duration : 2 h 50 min
Bit rate : 3 227 kb/s
Width : 1 920 pixels
Height : 1 080 pixels
Display aspect ratio : 16:9
Frame rate mode : Constant
Frame rate : 23.976 (24000/1001) FPS
Color space : YUV
Chroma subsampling : 4:2:0
Bit depth : 10 bits
Bits/(Pixel*Frame) : 0.065
Stream size : 3.84 GiB (72%)
Default : Yes
Forced : No
Color range : Limited
Color primaries : BT.709
Transfer characteristics : BT.709
Matrix coefficients : BT.709

Audio #1
ID : 2
Format : AC-3
Format/Info : Audio Coding 3
Commercial name : Dolby Digital
Codec ID : A_AC3
Duration : 2 h 50 min
Bit rate mode : Constant
Bit rate : 640 kb/s
Channel(s) : 6 channels
Channel layout : L R C LFE Ls Rs
Sampling rate : 48.0 kHz
Frame rate : 31.250 FPS (1536 SPF)
Compression mode : Lossy
Stream size : 779 MiB (14%)
Language : Polish
Service kind : Complete Main
Default : Yes
Forced : No

Audio #2
ID : 3
Format : AC-3
Format/Info : Audio Coding 3
Commercial name : Dolby Digital
Codec ID : A_AC3
Duration : 2 h 50 min
Bit rate mode : Constant
Bit rate : 640 kb/s
Channel(s) : 6 channels
Channel layout : L R C LFE Ls Rs
Sampling rate : 48.0 kHz
Frame rate : 31.250 FPS (1536 SPF)
Compression mode : Lossy
Stream size : 779 MiB (14%)
Language : English
Service kind : Complete Main
Default : No
Forced : No

Text #1
ID : 4
Format : UTF-8
Codec ID : S_TEXT/UTF8
Codec ID/Info : UTF-8 Plain Text
Duration : 2 h 38 min
Bit rate : 35 b/s
Count of elements : 1279
Stream size : 41.3 KiB (0%)
Language : Polish
Default : Yes
Forced : No

Text #2
ID : 5
Format : UTF-8
Codec ID : S_TEXT/UTF8
Codec ID/Info : UTF-8 Plain Text
Duration : 2 h 37 min
Bit rate : 42 b/s
Count of elements : 1282
Stream size : 48.8 KiB (0%)
Language : English
Default : No
Forced : No

Lista plików Show/Hide [Pokaż/Ukryj]
Trackery
  • udp://tracker.opentrackr.org:1337/announce
  • udp://tracker.internetwarriors.net:1337/announce
  • udp://tracker.torrent.eu.org:451/announce
  • udp://tracker.cyberia.is:6969/announce
  • udp://exodus.desync.com:6969/announce
  • udp://ipv4.tracker.harry.lu:80/announce
  • udp://explodie.org:6969/announce
  • udp://tracker.leechers-paradise.org:6969/announce
  • udp://tracker.iamhansen.xyz:2000/announce
  • udp://9.rarbg.me:2710/announce
  • udp://9.rarbg.to:2710/announce
  • udp://denis.stalker.upeer.me:6969/announce
  • udp://open.demonii.si:1337/announce
  • udp://tracker.coppersurfer.tk:6969/announce
  • udp://tracker.pirateparty.gr:6969/announce

Komentarze są widoczne dla osób zalogowanych!

Żaden z plików nie znajduje się na serwerze. Torrenty są własnością użytkowników. Administrator serwisu nie może ponieść konsekwencji za to co użytkownicy wstawiają, lub za to co czynią na stronie. Nie możesz używać tego serwisu do rozpowszechniania lub ściągania materiałów do których nie masz odpowiednich praw lub licencji. Użytkownicy odpowiedzialni są za przestrzeganie tych zasad.
Copyright © 2021 Ex-torrenty.org