Ex-torrenty.org
Bardzo ważna informacja
na stronie głównej dotycząca
rejestracji nowych użytkowników
HD / Akcja
Kula w Łeb - Bullet in the Head (1990) [BDRip.1080p.x265-HEVC.AC3][Napisy PL/Eng][Chinese][Kino Azja]


Dodał: Uploader
Data dodania:
2016-09-10 01:15:17
Rozmiar: 3.84 GB
Ostat. aktualizacja:
2019-07-10 22:00:31
Seedów: 0
Peerów: 0


Komentarze: 1

http://iv.pl/images/17833743981865785187.jpg

http://www.imdb.com/title/tt0099426/
http://www.filmweb.pl/film/Kula+w+%C5%82eb-1990-31827

reżyseria: John Woo
scenariusz: Patrick Leung,John Woo,Janet Chun
gatunek: Dramat,Sensacyjny,Wojenny
produkcja: Hongkong
premiera: 17-08-1990
muzyka:     James Wong,Romeo Díaz
zdjęcia:    Wing-Hung Wong,Ardy Lam
czas:      02:10:57

opis:

When three close friends escape from Hong Kong to war-time Saigon to start a criminal's life, they all go through a harrowing experience which totally shatters their lives and their friendship forever.

Frank, Ben i Paul mieszkają w ubogiej dzielnicy Hongkongu. Uciekają przed zemstą mafii do Wietnamu, gdzie zamierzają dorobić się na czarnym rynku. Przemycają ładunek penicyliny, ale wszystko tracą wkrótce po dotarciu do Sajgonu, bo pechowo pojawiają się w niewłaściwym czasie w niewłaściwym miejscu: o krok od bomby podrzuconej przez komunistę w samochodzie
południowowietnamskiego dygnitarza. Podczas eksplozji wylatuje w powietrze również ich ładunek. Uwięzieni przez Wietkong, trafiają do obozu koncentracyjnego.

http://iv.pl/images/77361927559654300459.jpg
http://iv.pl/images/57970269520090308437.jpg
http://iv.pl/images/62773488910538776895.jpg
http://iv.pl/images/64675886528991235232.jpg

obsada:

Tony Chiu Wai Leung, Jacky Cheung, Waise Lee

dane techniczne:Bullet in the Head (1990)-alE13.mkv
Format           : Matroska
Format version       : Version 4 / Version 2
File size          : 3.84 GiB
Duration          : 2h 10mn
Overall bit rate      : 4 196 Kbps
Movie name         : Bullet in the Head (1990)-alE13
Encoded date        : UTC 2015-07-19 04:45:04
Writing application     : mkvmerge v8.1.0 ('Psychedelic Postcard') 64bit
Writing library       : libebml v1.3.1 + libmatroska v1.4.2
DURATION          : 02:07:02.983000000
NUMBER_OF_FRAMES      : 1233
NUMBER_OF_BYTES       : 3844256
_STATISTICS_WRITING_APP   : mkvmerge v8.1.0 ('Psychedelic Postcard') 64bit
_STATISTICS_WRITING_DATE_UT : 2015-07-19 04:45:04
_STATISTICS_TAGS      : BPS DURATION NUMBER_OF_FRAMES NUMBER_OF_BYTES

Video
ID             : 1
Format           : HEVC
Format/Info         : High Efficiency Video Coding
Codec ID          : V_MPEGH/ISO/HEVC
Duration          : 2h 10mn
Bit rate          : 3 473 Kbps
Width            : 1 920 pixels
Height           : 1 024 pixels
Display aspect ratio    : 1.85:1
Frame rate mode       : Constant
Frame rate         : 23.976 fps
Bits/(Pixel*Frame)     : 0.074
Stream size         : 3.18 GiB (83%)
Language          : English
Default           : Yes
Forced           : No

Audio
ID             : 2
Format           : AC-3
Format/Info         : Audio Coding 3
Mode extension       : CM (complete main)
Format settings, Endianness : Big
Codec ID          : A_AC3
Duration          : 2h 10mn
Bit rate mode        : Constant
Bit rate          : 640 Kbps
Channel(s)         : 6 channels
Channel positions      : Front: L C R, Side: L R, LFE
Sampling rate        : 48.0 KHz
Bit depth          : 16 bits
Compression mode      : Lossy
Stream size         : 599 MiB (15%)
Title            : Bullet in the Head (1990)-alE13
Language          : Chinese
Default           : Yes
Forced           : No

Text #1
ID             : 3
Format           : UTF-8
Codec ID          : S_TEXT/UTF8
Codec ID/Info        : UTF-8 Plain Text
Title            : Bullet in the Head (1990)-alE13
Language          : English
Default           : No
Forced           : No

Text #2
ID             : 4
Format           : VobSub
Muxing mode         : zlib
Codec ID          : S_VOBSUB
Codec ID/Info        : The same subtitle format used on DVDs
Title            : Bullet in the Head (1990)-alE13_color
Language          : Polish
Default           : Yes
Forced           : No

Text #3
ID             : 5
Format           : UTF-8
Codec ID          : S_TEXT/UTF8
Codec ID/Info        : UTF-8 Plain Text
Title            : Bullet in the Head (1990)-alE13
Language          : Polish
Default           : No
Forced           : No

Text #4
ID             : 6
Format           : VobSub
Muxing mode         : zlib
Codec ID          : S_VOBSUB
Codec ID/Info        : The same subtitle format used on DVDs
Title            : Bullet in the Head (1990)-alE13_color
Language          : English
Default           : No
Forced           : No

Lista plików Show/Hide [Pokaż/Ukryj]
Trackery
  • http://torrent.gresille.org/announce.php
  • udp://exodus.desync.com:6969/announce
  • http://retracker.telecom.kz/announce
  • udp://inferno.demonoid.ph:3389/announce
  • http://announce.torrentsmd.com:8080/announce
  • http://tracker.filetracker.pl:8089/announce
  • http://tracker.torrenty.org:6969/announce
  • udp://tracker.aletorrenty.pl:2710/announce
  • http://torrent.gresille.org/announce
  • http://retracker.telecom.kz/announce.php
  • http://exodus.desync.com/announce
  • udp://open.demonii.com:1337/announce
  • udp://tracker.blackunicorn.xyz:6969/announce
  • udp://glotorrents.pw:6969/announce

Komentarze są widoczne dla osób zalogowanych!

Żaden z plików nie znajduje się na serwerze. Torrenty są własnością użytkowników. Administrator serwisu nie może ponieść konsekwencji za to co użytkownicy wstawiają, lub za to co czynią na stronie. Nie możesz używać tego serwisu do rozpowszechniania lub ściągania materiałów do których nie masz odpowiednich praw lub licencji. Użytkownicy odpowiedzialni są za przestrzeganie tych zasad.
Copyright © 2020 Ex-torrenty.org