Ex-torrenty.org
Bardzo ważna informacja
na stronie głównej dotycząca
rejestracji nowych użytkowników
HD / Animowany
Mała Wielka Stopa - The Son of Bigfoot *2017* [MULTi] [720p] [WEB-DL] [H.264-RLF] [Dubbing PL]


Dodał: rlf
Data dodania:
2021-09-14 21:17:25
Rozmiar: 2.90 GB
Ostat. aktualizacja:
2021-09-17 16:05:50
Seedów: 86
Peerów: 30


Komentarze: 0

...( Info )...

Reżyseria: Ben Stassen / Jeremy Degruson
Scenariusz: Bob Barlen / Cal Brunker
Gatunek: Animacja / Komedia
Produkcja: Belgia / Francja
Premiera: 26 lipca 2017 (świat)
Trailer: https://www.youtube.com/watch?v=ov__OGoHYhU

...( Opis )...

Nastoletni Adam wyrusza w poszukiwaniu swojego ojca. Podczas swojej wyprawy dowiaduje się, że jest potomkiem Yeti.

...( Dane Techniczne )...

Complete name: rlf-bigfoot.2017-multi.720p.mkv
File size: 2.90 GiB
Duration: 1 h 31 min
Overall bit rate: 4 531 kb/s
Writing library: libebml v1.4.2 + libmatroska v1.6.4
Encoder: Ralf

Wideo

Format/Info: Advanced Video Codec
Format profile: High@L3.2
Codec ID: V_MPEG4/ISO/AVC
Bit rate: 4 017 kb/s
Width: 1 728 pixels
Height: 718 pixels
Frame rate: 23,976 (24000/1001) kl/s
Bit depth: 8 bits
Bits/(Pixel*Frame): 0.135
Stream size: 2.58 GiB (89%)

Audio

Format/Info: Audio Coding 3
Commercial name: Dolby Digital
Bit rate: 256 kb/s
Channel(s): 6 channels
Sampling rate: 48,0 kHz
Stream size: 168 MiB (6%) x2
Language: English, Polish

Screeny

https://i.ibb.co/c10dt0j/a.png
https://i.ibb.co/LgXyp3J/b.png
https://i.ibb.co/tpYXMSq/c.png
https://i.ibb.co/cTqSstr/d.png

:X)

Lista plików Show/Hide [Pokaż/Ukryj]
Trackery
  • udp://9.rarbg.me:2980/announce
  • udp://inferno.demonoid.is:3391/announce
  • udp://tracker.openbittorrent.com:80/announce
  • udp://tracker.opentrackr.org:1337/announce
  • udp://open.stealth.si:80/announce
  • udp://tracker.torrent.eu.org:451/announce
  • udp://opentor.org:2710/announce
  • udp://tracker.tiny-vps.com:6969/announce
  • udp://retracker.netbynet.ru:2710/announce
  • udp://explodie.org:6969/announce

Komentarze są widoczne dla osób zalogowanych!

Żaden z plików nie znajduje się na serwerze. Torrenty są własnością użytkowników. Administrator serwisu nie może ponieść konsekwencji za to co użytkownicy wstawiają, lub za to co czynią na stronie. Nie możesz używać tego serwisu do rozpowszechniania lub ściągania materiałów do których nie masz odpowiednich praw lub licencji. Użytkownicy odpowiedzialni są za przestrzeganie tych zasad.
Copyright © 2021 Ex-torrenty.org