Ex-torrenty.org
Bardzo ważna informacja
na stronie głównej dotycząca
rejestracji nowych użytkowników
4K UHD / Fantasy
Niesamowity Spider-Man 2 (2014) The Amazing Spider-Man [2160p] [MINI] [4K] [HDR] [10 bit] [MP3].[H265] [marcin0313] [LEKTOR i DUBBING PL][MKV]


Dodał: Uploader
Data dodania:
2022-01-20 17:35:28
Rozmiar: 8.53 GB
Ostat. aktualizacja:
2022-03-27 13:03:49
Seedów: 1
Peerów: 13


Komentarze: 0

...( Info )...

Produkcja: USA
Gatunek: Akcja, Sci-Fi
Premiera: 10 kwietnia 2014 (świat)
Reżyseria: Marc Webb
Scenariusz: Alex Kurtzman, Roberto Orci

...( Opis )...

Zbliża się zakończenie szkoły, ale pomimo tego Peter Parker (Andrew Garfield) ma ważniejsze sprawy na głowie. Jego życie utknęło pomiędzy ściganiem złych facetów jako Spider-Man a spotkaniami z ukochaną Gwen Stacy (Emma Stone). Peter nie zapomniał o obietnicy złożonej ojcu dziewczyny, jednak nie potrafi jej dotrzymać. Wszystko zmienia się, gdy w mieście pojawia się nowy złoczyńca, Electro (Jamie Foxx).

...( Obsada )...

★ Andrew Garfield .... Spider-Man / Peter Parker
★ Emma Stone .... Gwen Stacy
★ Jamie Foxx .... Elektro / Max Dillon
★ Dane DeHaan .... Zielony Goblin / Harry Osborn
★ Colm Feore .... Donald Menken
★ Felicity Jones .... Felicia Hardy
★ Paul Giamatti .... Aleksei Sytsevich
★ Sally Field .... Ciocia May

...( Dane Techniczne )...

Video
ID : 1
Format : HEVC
Format/Info : High Efficiency Video Coding
Format profile : Main [email protected]@Main
Codec ID : V_MPEGH/ISO/HEVC
Duration : 2 h 21 min
Bit rate : 8 367 kb/s
Width : 3 840 pixels
Height : 2 160 pixels
Display aspect ratio : 16:9
Frame rate mode : Constant
Frame rate : 23.976 (24000/1001) FPS
Color space : YUV
Chroma subsampling : 4:2:0
Bit depth : 10 bits
Bits/(Pixel*Frame) : 0.042
Stream size : 8.27 GiB (97%)

Audio #1
ID : 2
Format : MPEG Audio
Format version : Version 1
Format profile : Layer 3
Format settings : Joint stereo / MS Stereo
Codec ID : A_MPEG/L3
Codec ID/Hint : MP3
Duration : 2 h 21 min
Bit rate mode : Constant
Bit rate : 128 kb/s
Channel(s) : 2 channels
Sampling rate : 48.0 kHz
Frame rate : 41.667 FPS (1152 SPF)
Compression mode : Lossy
Delay relative to video : 23 ms
Stream size : 130 MiB (1%)
Title : DUBBING PL


Audio #2
ID : 3
Format : MPEG Audio
Format version : Version 1
Format profile : Layer 3
Format settings : Joint stereo / MS Stereo
Codec ID : A_MPEG/L3
Codec ID/Hint : MP3
Duration : 2 h 21 min
Bit rate mode : Constant
Bit rate : 128 kb/s
Channel(s) : 2 channels
Sampling rate : 48.0 kHz
Frame rate : 41.667 FPS (1152 SPF)
Compression mode : Lossy
Delay relative to video : 23 ms
Stream size : 130 MiB (1%)
Title : Lektor PL

Lista plików Show/Hide [Pokaż/Ukryj]
Trackery Show/Hide [Pokaż/Ukryj]

Komentarze są widoczne dla osób zalogowanych!

Żaden z plików nie znajduje się na serwerze. Torrenty są własnością użytkowników. Administrator serwisu nie może ponieść konsekwencji za to co użytkownicy wstawiają, lub za to co czynią na stronie. Nie możesz używać tego serwisu do rozpowszechniania lub ściągania materiałów do których nie masz odpowiednich praw lub licencji. Użytkownicy odpowiedzialni są za przestrzeganie tych zasad.
Copyright © 2022 Ex-torrenty.org