Ex-torrenty.org
Bardzo ważna informacja
na stronie głównej dotycząca
rejestracji nowych użytkowników
4K UHD / Sci-Fi
Niesamowity Spider-Man - The Amazing Spider-Man (2012) [2160p] [MINI] [4K] [HDR] [10 bit] [MP3].[H265] [marcin0313] [LEKTOR i DUBBING PL][MKV]


Dodał: Uploader
Data dodania:
2022-01-20 17:35:30
Rozmiar: 8.07 GB
Ostat. aktualizacja:
2022-04-28 19:04:53
Seedów: 0
Peerów: 4


Komentarze: 0

...( Info )...

!!! Film POSIADA LEKTORA I DUBBING DO WYBORU !!!

Produkcja: USA
Gatunek: Akcja, Sci-Fi
Premiera: 13 czerwca 2012 (świat)
Reżyseria: Marc Webb
Scenariusz: James Vanderbilt, Alvin Sargent

...( Opis )...

Nowa obsada, nowy reżyser, nowa historia. Czy zupełnie nowe podejście do najbardziej kasowego komiksu wszech czasów się powiedzie? Jak widać na przykładzie serii o Bondzie, odświeżenie tematu może okazać się wielkim sukcesem. Peter Parker tym razem uczy się jeszcze w liceum. Musi pogodzić się z tym, kim się stał, i wybaczyć sobie śmierć wuja, którego – tak mu się wydaje – mógł uratować.

...( Obsada )...

★ Andrew Garfield .... Spider-Man / Peter Parker
★ Emma Stone .... Gwen Stacy
★ Rhys Ifans .... Jaszczur / Dr Curt Connors
★ Denis Leary .... Kapitan Stacy
★ Martin Sheen .... Wujek Ben
★ Sally Field .... Ciocia May
★ Irrfan Khan .... Rajit Ratha
★ Campbell Scott .... Richard Parker

...( Dane Techniczne )...

Video
ID : 1
Format : HEVC
Format/Info : High Efficiency Video Coding
Format profile : Main [email protected]@Main
HDR format : SMPTE ST 2086, HDR10 compatible
Codec ID : V_MPEGH/ISO/HEVC
Duration : 2 h 16 min
Bit rate : 8 216 kb/s
Width : 3 840 pixels
Height : 1 608 pixels
Display aspect ratio : 2.40:1
Frame rate mode : Constant
Frame rate : 23.976 (24000/1001) FPS
Color space : YUV
Chroma subsampling : 4:2:0
Bit depth : 10 bits
Bits/(Pixel*Frame) : 0.055
Stream size : 7.82 GiB (97%)

Audio #1
ID : 2
Format : MPEG Audio
Format version : Version 1
Format profile : Layer 3
Format settings : Joint stereo
Codec ID : A_MPEG/L3
Codec ID/Hint : MP3
Duration : 2 h 16 min
Bit rate mode : Constant
Bit rate : 128 kb/s
Channel(s) : 2 channels
Sampling rate : 48.0 kHz
Frame rate : 41.667 FPS (1152 SPF)
Compression mode : Lossy
Delay relative to video : 23 ms
Stream size : 125 MiB (2%)
Title : Dubbing PL


Audio #2
ID : 3
Format : MPEG Audio
Format version : Version 1
Format profile : Layer 3
Format settings : Joint stereo / MS Stereo
Codec ID : A_MPEG/L3
Codec ID/Hint : MP3
Duration : 2 h 16 min
Bit rate mode : Constant
Bit rate : 128 kb/s
Channel(s) : 2 channels
Sampling rate : 48.0 kHz
Frame rate : 41.667 FPS (1152 SPF)
Compression mode : Lossy
Delay relative to video : 23 ms
Stream size : 125 MiB (2%)
Title : LEKTOR PL

Lista plików Show/Hide [Pokaż/Ukryj]
Trackery Show/Hide [Pokaż/Ukryj]

Komentarze są widoczne dla osób zalogowanych!

Żaden z plików nie znajduje się na serwerze. Torrenty są własnością użytkowników. Administrator serwisu nie może ponieść konsekwencji za to co użytkownicy wstawiają, lub za to co czynią na stronie. Nie możesz używać tego serwisu do rozpowszechniania lub ściągania materiałów do których nie masz odpowiednich praw lub licencji. Użytkownicy odpowiedzialni są za przestrzeganie tych zasad.
Copyright © 2022 Ex-torrenty.org