Ex-torrenty.org
Bardzo ważna informacja
na stronie głównej dotycząca
rejestracji nowych użytkowników
4K UHD / Fantasy
47 roninów - 47 Ronin (2013) [2160p] [MINI] [4K] [HDR] [10bit] [MP3].[H265] [marcin0313] [Lektor PL][MKV]


Dodał: Uploader
Data dodania:
2022-01-20 17:38:51
Rozmiar: 4.28 GB
Ostat. aktualizacja:
2022-05-22 20:40:06
Seedów: 0
Peerów: 0


Komentarze: 2

...( Info )...

Produkcja: USA
Gatunek: Fantasy, Przygodowy
Premiera: 6 grudnia 2013 (świat)
Reżyseria: Carl Rinsch
Scenariusz: Chris Morgan, Hossein Amini

...( Opis )...

Film oparty na legendarnej historii 47 roninów z początku XVIII wieku. Grupa samurajów przez rok planowała zemstę za śmierć swojego pana na urzędniku sądowym. Winni morderstwa, zgodnie z kodeksem bushido, popełnili grupowe seppuku. Do dziś uważani są za bohaterów narodowych, symbol walki o sprawiedliwość nawet za cenę życia.

...( Obsada )...

★ Keanu Reeves .... Kai
★ Hiroyuki Sanada .... Ôishi
★ Tadanobu Asano .... Lord Kira
★ Rinko Kikuchi .... Wiedźma
★ Kô Shibasaki .... Mika
★ Min Tanaka .... Lord Asano
★ Cary-Hiroyuki Tagawa .... Szogun Tsunayoshi
★ Jin Akanishi .... Chikara

...( Dane Techniczne )...

Video
ID : 1
Format : HEVC
Format/Info : High Efficiency Video Coding
Format profile : Main [email protected]@Main
HDR format : SMPTE ST 2086, HDR10 compatible
Codec ID : V_MPEGH/ISO/HEVC
Duration : 1 h 58 min
Bit rate : 5 033 kb/s
Width : 3 840 pixels
Height : 2 160 pixels
Display aspect ratio : 16:9
Frame rate mode : Constant
Frame rate : 23.976 (24000/1001) FPS
Color space : YUV
Chroma subsampling : 4:2:0
Bit depth : 10 bits
Bits/(Pixel*Frame) : 0.025
Stream size : 4.17 GiB (97%)


Audio
ID : 2
Format : MPEG Audio
Format version : Version 1
Format profile : Layer 3
Format settings : Joint stereo
Codec ID : A_MPEG/L3
Codec ID/Hint : MP3
Duration : 1 h 58 min
Bit rate mode : Constant
Bit rate : 128 kb/s
Channel(s) : 2 channels
Sampling rate : 48.0 kHz
Frame rate : 41.667 FPS (1152 SPF)
Compression mode : Lossy
Delay relative to video : 23 ms
Stream size : 109 MiB (2%)
Title : Stereo
Writing library : LAME3.100UU
Language : Polish

Lista plików Show/Hide [Pokaż/Ukryj]
Trackery Show/Hide [Pokaż/Ukryj]

Komentarze są widoczne dla osób zalogowanych!

Żaden z plików nie znajduje się na serwerze. Torrenty są własnością użytkowników. Administrator serwisu nie może ponieść konsekwencji za to co użytkownicy wstawiają, lub za to co czynią na stronie. Nie możesz używać tego serwisu do rozpowszechniania lub ściągania materiałów do których nie masz odpowiednich praw lub licencji. Użytkownicy odpowiedzialni są za przestrzeganie tych zasad.
Copyright © 2022 Ex-torrenty.org