Ex-torrenty.org
Bardzo ważna informacja
na stronie głównej dotycząca
rejestracji nowych użytkowników
4K UHD / Sci-Fi
Predator 1987 (2160p [WEB-DL].[H265].[10bit].[SDR] [marcin0313][MP3] [4 Lektorów PL][MKV]


Dodał: Uploader
Data dodania:
2022-09-28 14:39:26
Rozmiar: 6.32 GB
Ostat. aktualizacja:
2022-12-02 10:56:16
Seedów: 11
Peerów: 14


Komentarze: 8

...( Info )...

4 Lektorów do wyboru

1.Maciej Gudowski
2.Janusz Kozioł (tvn)
3.Jarosław Łukomski (tv4)
4.Tomasz Knapik (vhs)

Data premiery : 14 kwietnia 1990 (Polska)
Kraj produkcji : Stany Zjednoczone
Reżyseria : John McTiernan
Scenariusz : Jim Thomas, John Thomas
Czas trwania : 107 minut

...( Opis )...

W południowoamerykańskiej dżungli spadł helikopter z amerykańskim ministrem. Zadanie odszukania go i uwolnienia z rąk partyzantów otrzymuje niewielki oddział, którym dowodzi major Dutch Schaeffer (Arnold Schwarzenegger). Dołącza do nich również agent CIA, Dillon (Carl Weathers). W dżungli okazuje się, że minister to blef, tak naprawdę CIA chce odnaleźć zaginionych doradców wojskowych, którzy przygotowywali operację contras. Atak na obóz partyzancki dokonany z zaskoczenia w brawurowym stylu nie przynosi uwolnienia poszukiwanych, lecz ujawnia straszne, obdarte ze skóry zwłoki. Okrucieństwo tej śmierci przeraża i szokuje nawet tak doświadczonych komandosów. Z wolna dżungla wokół nich zaczyna przypominać klatkę bez drzwi. Oto zaczyna ich atakować "drapieżca" z kosmosu.

...( Obsada )...


Arnold Schwarzenegger ....... Major Alan "Dutch" Schaeffer
Carl Weathers ....... Major George Dillon
Elpidia Carrillo ....... Anna
Bill Duke ....... Sierżant "Mac" Eliot
Jesse Ventura ....... Blain
Sonny Landham ....... Billy Sole
Richard Chaves ....... Poncho Ramirez
R.G. Armstrong ....... Generał Phillips

...( Dane Techniczne )...


Video
ID : 1
Format : HEVC
Format/Info : High Efficiency Video Coding
Format profile : Main [email protected]@Main
Codec ID : V_MPEGH/ISO/HEVC
Duration : 1 h 46 min
Bit rate : 7 976 kb/s
Width : 3 840 pixels
Height : 2 064 pixels
Display aspect ratio : 1.85:1
Frame rate mode : Constant
Frame rate : 23.976 (24000/1001) FPS
Color space : YUV
Chroma subsampling : 4:2:0
Bit depth : 10 bits
Bits/(Pixel*Frame) : 0.042
Stream size : 5.94 GiB (94%)


Audio #1
ID : 2
Format : MPEG Audio
Format version : Version 1
Format profile : Layer 3
Format settings : Joint stereo
Codec ID : A_MPEG/L3
Codec ID/Hint : MP3
Duration : 1 h 46 min
Bit rate mode : Constant
Bit rate : 128 kb/s
Channel(s) : 2 channels
Sampling rate : 48.0 kHz
Frame rate : 41.667 FPS (1152 SPF)
Compression mode : Lossy
Delay relative to video : 23 ms
Stream size : 97.6 MiB (2%)
Title : Maciej Gudowski
Writing library : LAME3.100ªªªªªªª7ge
Language : Polish
Default : Yes
Forced : No

Audio #2
ID : 3
Format : AC-3
Format/Info : Audio Coding 3
Commercial name : Dolby Digital
Codec ID : A_AC3
Duration : 1 h 46 min
Bit rate mode : Constant
Bit rate : 128 kb/s
Channel(s) : 2 channels
Channel layout : L R
Sampling rate : 48.0 kHz
Frame rate : 31.250 FPS (1536 SPF)
Compression mode : Lossy
Stream size : 97.6 MiB (2%)
Title : Janusz Kozioł (tvn)
Service kind : Complete Main
Default : Yes
Forced : No

Audio #3
ID : 4
Format : AC-3
Format/Info : Audio Coding 3
Commercial name : Dolby Digital
Codec ID : A_AC3
Duration : 1 h 46 min
Bit rate mode : Constant
Bit rate : 128 kb/s
Channel(s) : 2 channels
Channel layout : L R
Sampling rate : 48.0 kHz
Frame rate : 31.250 FPS (1536 SPF)
Compression mode : Lossy
Stream size : 97.6 MiB (2%)
Title : Jarosław Łukomski (tv4)
Service kind : Complete Main
Default : Yes
Forced : No

Audio #4
ID : 5
Format : AC-3
Format/Info : Audio Coding 3
Commercial name : Dolby Digital
Codec ID : A_AC3
Duration : 1 h 46 min
Bit rate mode : Constant
Bit rate : 128 kb/s
Channel(s) : 2 channels
Channel layout : L R
Sampling rate : 48.0 kHz
Frame rate : 31.250 FPS (1536 SPF)
Compression mode : Lossy
Stream size : 97.6 MiB (2%)
Title : Tomasz Knapik (vhs)

Lista plików Show/Hide [Pokaż/Ukryj]
Trackery Show/Hide [Pokaż/Ukryj]

Komentarze są widoczne dla osób zalogowanych!

Żaden z plików nie znajduje się na serwerze. Torrenty są własnością użytkowników. Administrator serwisu nie może ponieść konsekwencji za to co użytkownicy wstawiają, lub za to co czynią na stronie. Nie możesz używać tego serwisu do rozpowszechniania lub ściągania materiałów do których nie masz odpowiednich praw lub licencji. Użytkownicy odpowiedzialni są za przestrzeganie tych zasad.
Copyright © 2022 Ex-torrenty.org