Ex-torrenty.org
Bardzo ważna informacja
na stronie głównej dotycząca
rejestracji nowych użytkowników
x264 / Akcja
Samarytanin / Samaritan *2022* [720p] [AMZN] [WEBRip] [DDP5.1.AAC2.0] [H264] [Lektor & Napisy PL] [vantablack]


Dodał: Uploader
Data dodania:
2022-09-28 14:40:27
Rozmiar: 1.43 GB
Ostat. aktualizacja:
2022-10-29 08:23:47
Seedów: 152
Peerów: 0


Komentarze: 0

...( Info )...

Produkcja: USA
Gatunek: Akcja, Sci-Fi
Premiera: 26 sierpnia 2022 (Światowa premiera)
Reżyseria: Julius Avery
Scenariusz: Bragi F. Schut

Source: Amazon Prime Video

...( Opis )...

Trzynastoletni Sam Cleary (Javon "Wanna" Walton) podejrzewa, że ​​jego tajemniczy i samotny sąsiad, pan Smith (Sylvester Stallone), jest w rzeczywistości legendarnym bohaterem, Samarytaninem, którego śmierć ogłoszono 25 lat wcześniej. Rosnąca przestępczość i powiększający się kryzys skłaniają Sama do wydobycia swojego sąsiada z ukrycia, aby ocalić miasto przed zniszczeniem.

...( Obsada )...

★ Sylvester Stallone .... Joe Smith
★ Javon "Wanna" Walton .... Sam
★ Martin Starr .... Albert Casler
★ Moises Arias .... Reza
★ Dascha Polanco .... Tiffany Cleary
★ Pilou Asbæk .... Cyrus
★ Sophia Tatum .... Sil
★ Michael Aaron Milligan .... Tuna

...( Dane Techniczne )...

Video
ID : 1
Format : AVC
Format/Info : Advanced Video Codec
Format profile : [email protected]
Format settings : CABAC / 4 Ref Frames
Format settings, CABAC : Yes
Format settings, Reference fra : 4 frames
Codec ID : avc1
Codec ID/Info : Advanced Video Coding
Duration : 1 h 42 min
Bit rate : 1 614 kb/s
Width : 1 280 pixels
Height : 528 pixels
Display aspect ratio : 2.40:1
Original display aspect ratio : 2.40:1
Frame rate mode : Variable
Frame rate : 23.976 FPS
Minimum frame rate : 23.974 FPS
Maximum frame rate : 90 000.000 FPS
Color space : YUV
Chroma subsampling : 4:2:0
Bit depth : 8 bits
Scan type : Progressive
Bits/(Pixel*Frame) : 0.100
Stream size : 1.15 GiB (80%)
Codec configuration box : avcC

Audio #1
ID : 2
Format : E-AC-3
Format/Info : Enhanced AC-3
Commercial name : Dolby Digital Plus
Codec ID : ec-3
Duration : 1 h 42 min
Bit rate mode : Constant
Bit rate : 192 kb/s
Channel(s) : 6 channels
Channel layout : L R C LFE Ls Rs
Sampling rate : 48.0 kHz
Frame rate : 31.250 FPS (1536 SPF)
Compression mode : Lossy
Stream size : 141 MiB (10%)
Language : Polish
Service kind : Complete Main
Default : Yes
Alternate group : 1

Audio #2
ID : 3
Format : AAC LC
Format/Info : Advanced Audio Codec Low Complexity
Codec ID : mp4a-40-2
Duration : 1 h 42 min
Bit rate mode : Constant
Bit rate : 192 kb/s
Channel(s) : 2 channels
Channel layout : L R
Sampling rate : 48.0 kHz
Frame rate : 46.875 FPS (1024 SPF)
Compression mode : Lossy
Stream size : 141 MiB (10%)
Language : English
Default : Yes
Alternate group : 2

Lista plików Show/Hide [Pokaż/Ukryj]
Trackery Show/Hide [Pokaż/Ukryj]

Komentarze są widoczne dla osób zalogowanych!

Żaden z plików nie znajduje się na serwerze. Torrenty są własnością użytkowników. Administrator serwisu nie może ponieść konsekwencji za to co użytkownicy wstawiają, lub za to co czynią na stronie. Nie możesz używać tego serwisu do rozpowszechniania lub ściągania materiałów do których nie masz odpowiednich praw lub licencji. Użytkownicy odpowiedzialni są za przestrzeganie tych zasad.
Copyright © 2022 Ex-torrenty.org