Ex-torrenty.org
Bardzo ważna informacja
na stronie głównej dotycząca
rejestracji nowych użytkowników
x264 / Sci-Fi
Moonfall *2022* [480p] [AMZN] [WEBRip] [AAC2.0] [H264] [Lektor PL] [vantablack]


Dodał: Uploader
Data dodania:
2022-09-28 14:41:30
Rozmiar: 876.07 MB
Ostat. aktualizacja:
2022-11-06 17:24:59
Seedów: 490
Peerów: 25


Komentarze: 0

...( Info )...

Produkcja: USA, Kanada, Chiny
Gatunek: Sci-Fi, Katastroficzny
Premiera: 2 lutego 2022 (Światowa premiera), 4 lutego 2022 (Polska premiera kinowa)
Reżyseria: Roland Emmerich
Scenariusz: Roland Emmerich, Spenser Cohen

Source: Amazon Prime Video

...( Opis )...

Na skutek serii niewyjaśnionych zjawisk Księżyc wypada ze swojej orbity i obiera kurs kolizyjny z Ziemią. Jeśli dojdzie do zderzenia, nasza planeta ulegnie zagładzie. Była astronautka Jo Fowler (Halle Berry) jest przekonana, że przyczyną tego zjawiska jest działanie pewnej tajemniczej siły o niejasnym pochodzeniu. Większości naukowców i polityków ta teoria wydaje się szalona, ale Fowler wierzy, że jest wciąż szansa, by ocalić Ziemię. Wraz z jedynymi ludźmi, którzy wierzą w jej koncepcję: dawnym astronautą Brianem Harperem (Patrick Wilson) oraz niejakim Housemanem (John Bradley), specem od teorii spiskowych, Fowler przygotowuje misję ostatniej szansy. Kładąc na szali całą swoją wiedzę, doświadczenie i życie, wyruszają w kosmiczną podróż, podczas której odkryją, że Księżyc nie jest tym, czym nam się zawsze wydawał.

...( Obsada )...

★ Halle Berry .... Jocinda Fowler
★ Patrick Wilson .... Brian Harper
★ John Bradley .... KC Houseman
★ Charlie Plummer .... Sonny Harper
★ Michael Peña .... Tom Lopez
★ Carolina Bartczak .... Brenda Lopez
★ Donald Sutherland .... Holdenfield
★ Zayn Maloney .... Jimmy w wieku 10 lat

...( Dane Techniczne )...

Video
ID : 1
Format : AVC
Format/Info : Advanced Video Codec
Format profile : [email protected]
Format settings : CABAC / 4 Ref Frames
Format settings, CABAC : Yes
Format settings, Reference fra : 4 frames
Codec ID : avc1
Codec ID/Info : Advanced Video Coding
Duration : 2 h 10 min
Bit rate : 806 kb/s
Width : 960 pixels
Height : 400 pixels
Display aspect ratio : 2.40:1
Frame rate mode : Variable
Frame rate : 23.976 FPS
Minimum frame rate : 23.974 FPS
Maximum frame rate : 90 000.000 FPS
Color space : YUV
Chroma subsampling : 4:2:0
Bit depth : 8 bits
Scan type : Progressive
Bits/(Pixel*Frame) : 0.087
Stream size : 751 MiB (86%)
Codec configuration box : avcC

Audio
ID : 2
Format : AAC LC
Format/Info : Advanced Audio Codec Low Complexity
Codec ID : mp4a-40-2
Duration : 2 h 10 min
Bit rate mode : Constant
Bit rate : 128 kb/s
Channel(s) : 2 channels
Channel layout : L R
Sampling rate : 48.0 kHz
Frame rate : 46.875 FPS (1024 SPF)
Compression mode : Lossy
Stream size : 119 MiB (14%)
Language : Polish
Default : Yes
Alternate group : 1

Lista plików Show/Hide [Pokaż/Ukryj]
Trackery Show/Hide [Pokaż/Ukryj]

Komentarze są widoczne dla osób zalogowanych!

Żaden z plików nie znajduje się na serwerze. Torrenty są własnością użytkowników. Administrator serwisu nie może ponieść konsekwencji za to co użytkownicy wstawiają, lub za to co czynią na stronie. Nie możesz używać tego serwisu do rozpowszechniania lub ściągania materiałów do których nie masz odpowiednich praw lub licencji. Użytkownicy odpowiedzialni są za przestrzeganie tych zasad.
Copyright © 2022 Ex-torrenty.org