HD / Historyczny
Krzyżacy-Black Cross (1960)[BRRip 1080p by alE13 AC3/DTS][Napisy Eng][PL]


Dodał: alE13
Data dodania:
2017-01-16 08:12:44
Rozmiar: 9.94 GB
Ostat. aktualizacja:
2018-12-08 05:03:23
Seedów: 2
Peerów: 17


Komentarze: 10

http://i.imgur.com/Ho1oBrF.jpg

http://www.filmweb.pl/Krzyzacy
http://www.imdb.com/title/tt0054004/

Audio DTS w osobnym pliku.

reżyseria: Aleksander Ford
scenariusz: Jerzy Stefan Stawiński,Aleksander Ford
gatunek: Dramat historyczny
produkcja: Polska
premiera: 15-07-1960
muzyka: Kazimierz Serocki
zdjęcia: Mieczysław Jahoda
czas: 2h 53mn

opis:

In the 15th century the Polish-Lithuanian Commonwealth is facing a hard struggle against the

neighboring Teutonic Order.Frequent clashes between the two powers finally culminate in 1410 with

the Battle of Grunwald.

Historia Juranda ze Spychowa, który broni swych ziem przed atakami grup krzyżackich. Podczas

zdradzieckiego napadu Krzyżaków ze Szczytna pod dowództwem komtura Zygfryda de Löwe na Spychów

traci on żonę. Aby uchronić córkę Danuśkę przed podobnym losem, wysyła ją na dwór księcia

mazowieckiego. Danuśka poznaje Zbyszka z Bogdańca, który ślubuje jej wierność jako rycerz.

Uciekając się do podłego podstępu, Krzyżacy porywają ją i w ten sposób zwabiają do siebie Juranda.

Aby uratować ukochaną i jej ojca, Zbyszko udaje się do Malborka, aby szukać wsparcia u Wielkiego

Mistrza.

http://i.imgur.com/96MkP27.jpg
http://i.imgur.com/FnrXetI.jpg
http://i.imgur.com/YjGLZNQ.jpg
http://i.imgur.com/RS0nKQM.jpg

obsada:

Urszula Modrzynska, Grazyna Staniszewska, Andrzej Szalawski

dane techniczne:

Krzyżacy (1960)-alE13.mkv
Format : Matroska
Format version : Version 4 / Version 2
File size : 8.12 GiB
Duration : 2 h 53 min
Overall bit rate : 6 706 kb/s
Movie name : Krzyżacy (1960)-alE13
Encoded date : UTC 2017-01-16 06:49:59
Writing application : mkvmerge v8.1.0 ('Psychedelic Postcard') 64bit
Writing library : libebml v1.3.1 + libmatroska v1.4.2
Cover : Yes
Attachments : cover.jpg

Video
ID : 1
Format : AVC
Format/Info : Advanced Video Codec
Format profile : High@L4.1
Format settings, CABAC : Yes
Format settings, ReFrames : 2 frames
Codec ID : V_MPEG4/ISO/AVC
Duration : 2 h 52 min
Bit rate : 6 280 kb/s
Width : 1 920 pixels
Height : 816 pixels
Display aspect ratio : 2.35:1
Frame rate mode : Constant
Frame rate : 24.000 FPS
Color space : YUV
Chroma subsampling : 4:2:0
Bit depth : 8 bits
Scan type : Progressive
Bits/(Pixel*Frame) : 0.167
Stream size : 7.57 GiB (93%)
Title : Krzyżacy (1960)-alE13
Writing library : x264 core 142
Default : Yes
Forced : No
Color range : Limited
Color primaries : BT.709
Transfer characteristics : BT.709
Matrix coefficients : BT.709

Audio
ID : 2
Format : AC-3
Format/Info : Audio Coding 3
Mode extension : CM (complete main)
Format settings, Endianness : Big
Codec ID : A_AC3
Duration : 2 h 52 min
Bit rate mode : Constant
Bit rate : 448 kb/s
Channel(s) : 6 channels
Channel positions : Front: L C R, Side: L R, LFE
Sampling rate : 48.0 kHz
Frame rate : 31.250 FPS (1536 spf)
Bit depth : 16 bits
Compression mode : Lossy
Stream size : 553 MiB (7%)
Title : Krzyżacy (1960)-alE13
Language : Polish
Default : No
Forced : No

Text #1
ID : 3
Format : UTF-8
Codec ID : S_TEXT/UTF8
Codec ID/Info : UTF-8 Plain Text
Duration : 2 h 52 min
Bit rate : 46 b/s
Count of elements : 1334
Stream size : 59.5 KiB (0%)
Title : Krzyżacy (1960)-alE13
Language : Polish
Default : Yes
Forced : No

Text #2
ID : 4
Format : UTF-8
Codec ID : S_TEXT/UTF8
Codec ID/Info : UTF-8 Plain Text
Duration : 2 h 52 min
Bit rate : 49 b/s
Count of elements : 1426
Stream size : 62.3 KiB (0%)
Title : Krzyżacy (1960)-alE13
Language : English
Default : No
Forced : No

Menu
00:00:00.000 : en:Chapter 01
00:15:16.500 : en:Chapter 02
00:24:31.458 : en:Chapter 03
00:42:03.875 : en:Chapter 04
01:01:48.333 : en:Chapter 05
01:22:07.041 : en:Chapter 06
01:32:23.250 : en:Chapter 07
01:45:57.125 : en:Chapter 08
02:03:09.916 : en:Chapter 09
02:22:23.125 : en:Chapter 10
02:33:14.416 : en:Chapter 11
02:49:21.458 : en:Chapter 12

Lista plików Show/Hide [Pokaż/Ukryj]
Trackery
  • http://mgtracker.org:2710/announce
  • http://auratorrent.pl:8089/announce
  • http://pow7.com/announce
  • udp://inferno.demonoid.pw:3393/announce
  • udp://inferno.demonoid.ooo:3392/announce
  • udp://tracker.leechers-paradise.org:6969/announce
  • udp://shadowshq.eddie4.nl:6969/announce
  • udp://tracker.coppersurfer.tk:6969/announce
  • udp://9.rarbg.com:2710/announce
  • http://tracker.torrentyorg.pl/announce
  • http://tracker.tfile.me/announce
  • http://pow7.com:80/announce
  • http://tracker.tfile.me:80/announce
  • http://retracker.krs-ix.ru/announce
  • http://retracker.krs-ix.ru:80/announce
  • http://retracker.omsk.ru:2710/announce

<< Poprzednia      Następna >>
1 - 10

Dodał: fullkiller Data: 2017-01-16 18:39:44

Kolego super wstawka ale jak masz daj to w 1:1

Dodał: msmaiaci Data: 2017-01-16 18:51:03

bardzo dziekuje za wstawienie tak swietnego filmu Pani Elu

Dodał: alE13 Data: 2017-01-16 19:34:48

Proszę bardzo

Kolego będę miała lepszy net, zapodam 1:1, pozdrawiam

Dodał: fullkiller Data: 2017-01-16 21:18:18

Dzieki a to jest twoje czy moze masz zrodelko do wersji 1:1 ?

Dodał: dario4 Data: 2017-01-16 22:37:06

Wstawka zacna ale z niecierpliwością poczekam na 1:1.

Dodał: mariok Data: 2017-01-17 15:39:59

Overall bit rate : 6 706 kb/s - tyle to powinno mieć 720p
Na płycie:
Video Bitrate...: 29 Mb/s
Audio Bitrate...: 2.450 kb/s (DTS-HD MA 5.1)

Dodał: alE13 Data: 2017-01-17 19:34:16

Wstaw i nie marudź................
Mistrzu.

Dodał: alE13 Data: 2017-01-17 19:47:26

W oryginale...
wyżej napisałam, co i jak, Mistrzu...........

Dodał: mariok Data: 2017-01-17 20:41:19

Hehheee i nikt po pobraniu by nie seedował - za dużo tu pijawek na takie wstawki. Na publicznych polskich stronach p2p chyba wszystkie pełne obrazy płyt BD są przewalone z ruskich stron, bo tak po 3 dniach nie było by komu seedować.
Pozdrawiam...

Dodał: adamos1120 Data: 2018-12-06 21:36:57

Bardzo proszę wznów jeszcze na troszę mam 89.9%, proszę Twoja kopia jest najlepsza please!

1 - 10
<< Poprzednia      Następna >>

Żaden z plików nie znajduje się na serwerze. Torrenty są własnością użytkowników. Administrator serwisu nie może ponieść konsekwencji za to co użytkownicy wstawiają, lub za to co czynią na stronie. Nie możesz używać tego serwisu do rozpowszechniania lub ściągania materiałów do których nie masz odpowiednich praw lub licencji. Użytkownicy odpowiedzialni są za przestrzeganie tych zasad.
Copyright © 2018 Ex-torrenty.org