Ex-torrenty.org
TV / Akcja
Cytadela / Citadel (2023) [S01E06] [MULTi.1080p.AMZN.WEB-DL.DDP5.1.H26] [Lektor & Napisy PL]


Dodał: Uploader
Data dodania:
2023-05-27 00:27:20
Rozmiar: 2.28 GB
Ostat. aktualizacja:
2023-08-12 03:02:22
Seedów: 0
Peerów: 4


Komentarze: 0

...( Info )...

Cytadela / Citadel (2023) [S01E06] [MULTi.1080p.AMZN.WEB-DL.DDP5.1.H26] [Lektor & Napisy PL]

...( O filmie )...

Tytuł: Cytadela / Citadel [Sezon: 1][2023][Epizodów: 6]
Gatunek: Szpiegowski, Akcja, Dramat, Kryminał, Przygodowy
Produkcja: USA
Platforma: Amazon Prime Video
Premiera: 28 kwietnia 2023 r
Scenariusz: David Weil & Bryan Oh, Josh Appelbaum
Reżyseria: Newton Thomas Sigel, Anthony Russo, Joe Russo
Czas trwania około 42 min.

...( Opis )...

Osiem lat temu Cytadelę, niezależną międzynarodową siatkę szpiegowską, rozbił nowy syndykat, Mantykora.
Czołowi szpiedzy Cytadeli, Mason Kane (Richard Madden) i Nadia Singh (Priyanka Chopra Jonas), ledwo uszli z życiem i stracili pamięć.
Po latach były współpracownik Masona, Bernard Orlick (Stanley Tucci), prosi go o pomoc w powstrzymaniu Mantykory, która chce zaprowadzić na świecie nowy porządek.

...( Obsada )...

Richard Madden ..... Mason Kane / Kyle Conroy
Priyanka Chopra Jonas ..... Nadia Sinh / Charlotte Vernon
Stanley Tucci ..... Bernard Orlick
Lesley Manville ..... Dahlia Archer
Osy Ikhile ..... Carter Spence
Olegar Fedoro ..... Russian President
Ashleigh Cummings ..... Abby Conroy
Roland Moller ..... Anders Silje / Davik Silje
Caoilinn Springall ..... Hendrix Conroy
Janis Ahern ..... Dr. Hudes
Moira Kelly ..... Joe

...( Dane Techniczne )...

General
Format : Matroska
Format version : Version 4
File size : 1.54 GiB
Duration : 38 min 41 s
Overall bit rate : 5 708 kb/s

Video
ID : 3
Format : AVC
Format/Info : Advanced Video Codec
Format settings, CABAC : Yes
Format settings, Reference frames : 4 frames
Codec ID : V_MPEG4/ISO/AVC
Duration : 38 min 41 s
Bit rate mode : Constant
Bit rate : 4 314 kb/s
Nominal bit rate : 10 000 kb/s
Width : 1 920 pixels
Height : 800 pixels
Display aspect ratio : 2.40:1
Frame rate mode : Constant
Frame rate : 24.000 FPS

Audio #1
ID : 1
Format : E-AC-3
Format/Info : Enhanced AC-3
Commercial name : Dolby Digital Plus
Codec ID : A_EAC3
Duration : 38 min 41 s
Bit rate mode : Constant
Bit rate : 640 kb/s
Channel(s) : 6 channels
Channel layout : L R C LFE Ls Rs
Sampling rate : 48.0 kHz
Frame rate : 31.250 FPS (1536 SPF)
Compression mode : Lossy
Stream size : 177 MiB (11%)
Title : EAC3
Language : Polish
Service kind : Complete Main
Default : Yes
Forced : No

Audio #2
ID : 4
Format : E-AC-3
Format/Info : Enhanced AC-3
Commercial name : Dolby Digital Plus
Codec ID : A_EAC3
Duration : 38 min 41 s
Bit rate mode : Constant
Bit rate : 640 kb/s
Channel(s) : 6 channels
Channel layout : L R C LFE Ls Rs
Sampling rate : 48.0 kHz
Frame rate : 31.250 FPS (1536 SPF)
Compression mode : Lossy
Stream size : 177 MiB (11%)
Title : EAC3
Language : English
Service kind : Complete Main
Default : No
Forced : No

Text #1
ID : 2
Format : UTF-8
Codec ID : S_TEXT/UTF8
Codec ID/Info : UTF-8 Plain Text
Language : Polish
Default : No
Forced : No

Text #2
ID : 5
Format : UTF-8
Codec ID : S_TEXT/UTF8
Codec ID/Info : UTF-8 Plain Text
Title : Forced
Language : English
Default : No
Forced : Yes

Text #3
ID : 6
Format : UTF-8
Codec ID : S_TEXT/UTF8
Codec ID/Info : UTF-8 Plain Text
Language : English
Default : No
Forced : No

Text #4
ID : 7
Format : UTF-8
Codec ID : S_TEXT/UTF8
Codec ID/Info : UTF-8 Plain Text
Title : SDH
Language : English
Default : No
Forced : No

Lista plików

Trackery

  • udp://tracker.opentrackr.org:1337/announce
  • udp://tracker.openbittorrent.com:80/announce
  • Komentarze są widoczne dla osób zalogowanych!

    Żaden z plików nie znajduje się na serwerze. Torrenty są własnością użytkowników. Administrator serwisu nie może ponieść konsekwencji za to co użytkownicy wstawiają, lub za to co czynią na stronie. Nie możesz używać tego serwisu do rozpowszechniania lub ściągania materiałów do których nie masz odpowiednich praw lub licencji. Użytkownicy odpowiedzialni są za przestrzeganie tych zasad.
    Copyright © 2024 Ex-torrenty.org