Ex-torrenty.org
Bardzo ważna informacja
na stronie głównej dotycząca
rejestracji nowych użytkowników
HD / Akcja
Check Point (2017) [BDRip 1080p x264 by alE13 AC3/DTS][Napisy PL/Eng][Eng]


Dodał: alE13
Data dodania:
2017-03-01 07:05:09
Rozmiar: 9.06 GB
Ostat. aktualizacja:
2017-09-12 23:24:19
Seedów: 11
Peerów: 20


Komentarze: 7

http://i.imgur.com/y78se9T.jpg

http://www.imdb.com/title/tt4519400/
http://www.filmweb.pl/film/Check+Point-2016-751778

Plik zawiera Sample.

reżyseria: Thomas J. Churchill
scenariusz: Thomas J. Churchill,Anthony J. Perez
gatunek: Akcja
produkcja: USA
premiera: 20-01-2017
zdjęcia: Gabriel Gely
czas:

opis:

Port City North Carolina: During a routine camp out, a local vagrant discovers plans for
an invasion in America. When he tries to notify the local Sheriff about his discovery,
the Sheriff dismisses his claims and has him locked up for loitering. When the Sheriff notices
odd interactions with other towns folk he begins to look into the vagrants' claim of a sleeper
cell living amongst the locals within this small town. After evidence of a beheading is exposed,
others begin to fear that the insurgents attack on hometown USA. Questions and tempers begin
to rise. Why this little beach community with it's Norman Rockwell way of life? A town where
everyone knows one another... or so they thought. When the truth is blind and justice seems lost,
It will take an army of five unlikely heroes banding together to infiltrate the insurgents and foil
their invasion plans. War is Hell and Hell comes home at the Check Point.

Podczas obozowania w Port City w Północnej Karolinie lokalny włóczęga odkrywa plany zamachu na rząd USA.
Próbuje powiadomić o tym lokalnego szeryfa, aby temu zapobiec.

http://i.imgur.com/sc95HFT.jpg
http://i.imgur.com/WGmqlaT.jpg
http://i.imgur.com/BbvQTXd.jpg
http://i.imgur.com/K8rZFiT.jpg

obsada:

Mindy Robinson, Kenny Johnson, William Forsythe

dane techniczne:

Check Point (2017)-alE13.mkv
Format : Matroska
Format version : Version 4 / Version 2
File size : 8.99 GiB
Duration : 1 h 37 min
Overall bit rate : 13.2 Mb/s
Movie name : Check Point (2017)-alE13
Encoded date : UTC 2017-02-28 14:37:43
Writing application : mkvmerge v7.9.0 ('Birds') 64bit
Writing library : libebml v1.3.1 + libmatroska v1.4.2
Cover : Yes
Attachments : cover.jpg

Video
ID : 1
Format : AVC
Format/Info : Advanced Video Codec
Format profile : [email protected]
Format settings, CABAC : Yes
Format settings, ReFrames : 2 frames
Codec ID : V_MPEG4/ISO/AVC
Duration : 1 h 37 min
Bit rate : 8 900 kb/s
Width : 1 920 pixels
Height : 1 080 pixels
Display aspect ratio : 16:9
Frame rate mode : Constant
Frame rate : 23.976 (24000/1001) FPS
Color space : YUV
Chroma subsampling : 4:2:0
Bit depth : 8 bits
Scan type : Progressive
Bits/(Pixel*Frame) : 0.179
Stream size : 6.06 GiB (67%)
Title : Check Point (2017)-alE13
Writing library : x264 core 142
Default : Yes
Forced : No
Color range : Limited
Color primaries : BT.709
Transfer characteristics : BT.709
Matrix coefficients : BT.709

Audio #1
ID : 2
Format : AC-3
Format/Info : Audio Coding 3
Mode extension : CM (complete main)
Format settings, Endianness : Big
Codec ID : A_AC3
Duration : 1 h 37 min
Bit rate mode : Constant
Bit rate : 448 kb/s
Channel(s) : 6 channels
Channel positions : Front: L C R, Side: L R, LFE
Sampling rate : 48.0 kHz
Frame rate : 31.250 FPS (1536 spf)
Compression mode : Lossy
Stream size : 312 MiB (3%)
Title : Check Point (2017)-alE13_AC3
Language : English
Default : No
Forced : No

Audio #2
ID : 3
Format : DTS
Format/Info : Digital Theater Systems
Format profile : HRA / Core
Mode : 16
Format settings, Endianness : Big
Codec ID : A_DTS
Duration : 1 h 37 min
Bit rate mode : Constant
Bit rate : 3 840 kb/s / 1 509 kb/s
Channel(s) : 6 channels
Channel positions : Front: L C R, Side: L R, LFE
Sampling rate : 48.0 kHz
Frame rate : 93.750 FPS (512 spf)
Bit depth : 16 bits
Compression mode : Lossy
Stream size : 2.62 GiB (29%)
Title : Check Point (2017)-alE13_DTS-HR.5.1
Language : English
Default : Yes
Forced : No

Text #1
ID : 4
Format : UTF-8
Codec ID : S_TEXT/UTF8
Codec ID/Info : UTF-8 Plain Text
Duration : 1 h 35 min
Bit rate : 61 b/s
Count of elements : 1524
Stream size : 43.1 KiB (0%)
Title : Check Point (2017)-alE13
Language : English
Default : No
Forced : No

Text #2
ID : 5
Format : UTF-8
Codec ID : S_TEXT/UTF8
Codec ID/Info : UTF-8 Plain Text
Duration : 1 h 36 min
Bit rate : 137 b/s
Count of elements : 1402
Stream size : 96.5 KiB (0%)
Title : Check Point (2017)-alE13_color
Language : Polish
Default : Yes
Forced : No

Menu
00:00:00.000 : en:Chapter 01
00:13:35.940 : en:Chapter 02
00:32:02.295 : en:Chapter 03
00:48:07.050 : en:Chapter 04
00:58:15.575 : en:Chapter 05
01:15:37.449 : en:Chapter 06

Lista plików Show/Hide [Pokaż/Ukryj]
Trackery Show/Hide [Pokaż/Ukryj]

Komentarze są widoczne dla osób zalogowanych!

Żaden z plików nie znajduje się na serwerze. Torrenty są własnością użytkowników. Administrator serwisu nie może ponieść konsekwencji za to co użytkownicy wstawiają, lub za to co czynią na stronie. Nie możesz używać tego serwisu do rozpowszechniania lub ściągania materiałów do których nie masz odpowiednich praw lub licencji. Użytkownicy odpowiedzialni są za przestrzeganie tych zasad.
Copyright © 2022 Ex-torrenty.org