Ex-torrenty.org
Bardzo ważna informacja
na stronie głównej dotycząca
rejestracji nowych użytkowników
HD / Akcja
Narodziny Strachu-Rising Fear (2016)[WEBRip 1080p x264 by alE13 AC3][Napisy PL][Eng]


Dodał: alE13
Data dodania:
2017-03-05 17:09:31
Rozmiar: 7.80 GB
Ostat. aktualizacja:
2017-09-21 01:18:31
Seedów: 23
Peerów: 13


Komentarze: 5

http://i.imgur.com/JTqTAhJ.jpg

http://www.imdb.com/title/tt3006588/

Plik zawiera Sample.

produkcja: USA
premiera: 30-05-2016
reżyseria: Tom Getty
scenariusz: Tom Getty
gatunek: thrillr,akcja
czas: 1 h 34 min

opis:

When a former marine is framed for a deadly terrorist bombing, he must track down the mastermind
behind the plot. But soon he discovers an even deadlier conspiracy that threatens the nation. One
that will force him to choose between the freedom of millions, and his own survival.

Gdy były marine zostaje wrobiony w śmiertelny zamach terrorystyczny, musi wytropić mózg spisku.
Wkrótce jednak odkrywa, że spisek, który zagraża całemu narodowi. Jedna rzecz go zmusi, aby ratował
miliony ludzi, jego własne przeżycia.

http://i.imgur.com/tQYwLsj.jpg
http://i.imgur.com/Z4n3UGo.jpg
http://i.imgur.com/fF2FPV7.jpg
http://i.imgur.com/XeGVImV.jpg

obsada:

Curtis Caldwell, Tom Getty, Daniel Kuttner

dane techniczne:

Rising Fear (2016)-alE13.mkv
Format : Matroska
Format version : Version 4 / Version 2
File size : 7.74 GiB
Duration : 1 h 34 min
Overall bit rate : 11.7 Mb/s
Movie name : Rising Fear (2016)-alE13
Encoded date : UTC 2017-03-05 12:42:27
Writing application : mkvmerge v7.9.0 ('Birds') 64bit
Writing library : libebml v1.3.1 + libmatroska v1.4.2
Cover : Yes
Attachments : cover.jpg

Video
ID : 1
Format : AVC
Format/Info : Advanced Video Codec
Format profile : [email protected]
Format settings, CABAC : Yes
Format settings, ReFrames : 2 frames
Codec ID : V_MPEG4/ISO/AVC
Duration : 1 h 34 min
Bit rate : 11.0 Mb/s
Width : 1 920 pixels
Height : 816 pixels
Display aspect ratio : 2.35:1
Frame rate mode : Constant
Frame rate : 23.976 (24000/1001) FPS
Color space : YUV
Chroma subsampling : 4:2:0
Bit depth : 8 bits
Scan type : Progressive
Bits/(Pixel*Frame) : 0.294
Stream size : 7.31 GiB (95%)
Title : Rising Fear (2016)-alE13
Writing library : x264 core 142
Default : Yes
Forced : No
Color range : Limited
Color primaries : BT.709
Transfer characteristics : BT.709
Matrix coefficients : BT.709

Audio
ID : 2
Format : AC-3
Format/Info : Audio Coding 3
Mode extension : CM (complete main)
Format settings, Endianness : Big
Codec ID : A_AC3
Duration : 1 h 34 min
Bit rate mode : Constant
Bit rate : 640 kb/s
Channel(s) : 6 channels
Channel positions : Front: L C R, Side: L R, LFE
Sampling rate : 48.0 kHz
Frame rate : 31.250 FPS (1536 spf)
Compression mode : Lossy
Stream size : 434 MiB (5%)
Title : Rising Fear (2016)-alE13_AC3
Language : English
Default : No
Forced : No

Text
ID : 3
Format : UTF-8
Codec ID : S_TEXT/UTF8
Codec ID/Info : UTF-8 Plain Text
Duration : 1 h 30 min
Bit rate : 83 b/s
Count of elements : 718
Stream size : 55.8 KiB (0%)
Title : Rising Fear (2016)-alE13_color
Language : Polish
Default : Yes
Forced : Yes

Lista plików Show/Hide [Pokaż/Ukryj]
Trackery Show/Hide [Pokaż/Ukryj]

Komentarze są widoczne dla osób zalogowanych!

Żaden z plików nie znajduje się na serwerze. Torrenty są własnością użytkowników. Administrator serwisu nie może ponieść konsekwencji za to co użytkownicy wstawiają, lub za to co czynią na stronie. Nie możesz używać tego serwisu do rozpowszechniania lub ściągania materiałów do których nie masz odpowiednich praw lub licencji. Użytkownicy odpowiedzialni są za przestrzeganie tych zasad.
Copyright © 2022 Ex-torrenty.org