Ex-torrenty.org
Bardzo ważna informacja
na stronie głównej dotycząca
rejestracji nowych użytkowników
Filmy/Bajki / 3D
Vaiana: Skarb oceanu 3D - Moana *2016* [mini-HD.1080p.3D.Half.Over-Under.DualAudio.AC3.BluRay.x264-SONDA] [Dubbing i Napisy PL] [ENG]


Dodał: sonda
Data dodania:
2017-03-29 13:03:34
Rozmiar: 3.93 GB
Ostat. aktualizacja:
2023-02-07 00:05:28
Seedów: 0
Peerów: 0


Komentarze: 2

http://i.imgur.com/aH2a0tp.jpg

Film w wersji 3D Half Over-Under.
Do odtworzenia filmu WYMAGANY odpowiedni sprzęt (TV 3D)
===========================================

Kopia mini-HD 1080p = 3,93 GB

gatunek: Animacja,Familijny,Przygodowy
produkcja: USA
premiera: 25 listopada 2016 (Polska) 23 listopada 2016 (świat)
reżyseria: Ron Clements,John Musker
scenariusz: Jared Bush

http://www.imdb.com/title/tt3521164/

Obsada:

Weronika Bochat ... Vaiana (polski dubbing)
Igor Kwiatkowski ... Maui (polski dubbing)
Piotr Grabowski ... Wódz Tui (polski dubbing)
Dorota Stalińska ... Babcia Tala (polski dubbing)
Magdalena Turczeniewicz ... Sina (polski dubbing)
Maciej Maleńczuk ... Tamatoa (polski dubbing)

Opis:

Trzy tysiące lat temu najdzielniejsi żeglarze na świecie przemierzali wody południowego Pacyfiku i odkrywali wyspy Oceanii. Jednak w pewnym momencie ich wyprawy ustały na całe tysiąc lat – i nikt nie wie dlaczego…
Walt Disney Animation Studios prezentuje film "Vaiana: Skarb oceanu". Jest to komputerowo animowana opowieść o przygodach nastolatki, która, chcąc dokończyć dzieła swych przodków, wyrusza w niebezpieczną misję. Podczas podróży poznaje potężnego niegdyś półboga Maui. Od tego momentu wspólnie żeglują przez bezmiar oceanu, który nie szczędzi im karkołomnych przygód, obfitujących w spotkania z ogromnymi potworami.

Storyline:

Moana Waialiki is a sea voyaging enthusiast and the only daughter of a chief in a long line of navigators. When her island's fishermen can't catch any fish and the crops fail, she learns that the demigod Maui caused the blight by stealing the heart of the goddess, Te Fiti. The only way to heal the island is to persuade Maui to return Te Fiti's heart, so Moana sets off on an epic journey across the Pacific. The film is based on stories from Polynesian mythology.

Screenshot:

http://i.imgur.com/9FP9Jif.jpg
http://i.imgur.com/YSHY4z7.jpg
http://i.imgur.com/5QW6QGY.jpg
http://i.imgur.com/jYafT6s.jpg


Dane techniczne:

General
Format : Matroska
Format version : Version 2
File size : 3.93 GiB
Duration : 1h 47mn
Overall bit rate : 5 254 Kbps
Movie name : Moana.3D.2016.PL.HOU.1080p.BDRip.Sonda
Encoded date : UTC 2017-03-29 08:38:41
Writing application : mkvmerge v5.7.0 ('The Whirlwind') built on Jul 8 2012 20:08:51
Writing library : libebml v1.2.3 + libmatroska v1.3.0

Video
ID : 1
Format : AVC
Format/Info : Advanced Video Codec
Format profile : High@L4.1
Format settings, CABAC : Yes
Format settings, ReFrames : 4 frames
Codec ID : V_MPEG4/ISO/AVC
Duration : 1h 47mn
Bit rate : 4 200 Kbps
Width : 1 920 pixels
Height : 1 080 pixels
Display aspect ratio : 16:9 (2.39:1)
Frame rate mode : Constant
Frame rate : 23.976 fps
Color space : YUV
Chroma subsampling : 4:2:0
Bit depth : 8 bits
Scan type : Progressive
Bits/(Pixel*Frame) : 0.084
Stream size : 3.09 GiB (79%)
Title : Rip by Sonda
Writing library : x264
Encoding settings : cabac=1 / ref=4 / deblock=1:1:1 / rc=2pass
Default : Yes
Forced : No

Audio #1
ID : 2
Format : AC-3
Format/Info : Audio Coding 3
Mode extension : CM (complete main)
Format settings, Endianness : Big
Codec ID : A_AC3
Duration : 1h 47mn
Bit rate mode : Constant
Bit rate : 384 Kbps
Channel count : 6 channels
Channel positions : Front: L C R, Side: L R, LFE
Sampling rate : 48.0 KHz
Bit depth : 16 bits
Compression mode : Lossy
Delay relative to video : 10ms
Stream size : 294 MiB (7%)
Title : AC3 5.1 Dubbing PL
Language : Polish
Default : Yes
Forced : Yes

Audio #2
ID : 3
Format : AC-3
Format/Info : Audio Coding 3
Mode extension : CM (complete main)
Format settings, Endianness : Big
Codec ID : A_AC3
Duration : 1h 47mn
Bit rate mode : Constant
Bit rate : 640 Kbps
Channel count : 6 channels
Channel positions : Front: L C R, Side: L R, LFE
Sampling rate : 48.0 KHz
Bit depth : 16 bits
Compression mode : Lossy
Stream size : 491 MiB (12%)
Title : AC3 5.1 ENG
Language : English
Default : No
Forced : No

Text #1
ID : 4
Format : UTF-8
Codec ID : S_TEXT/UTF8
Codec ID/Info : UTF-8 Plain Text
Title : napisy PL 2D
Language : Polish
Default : No
Forced : No

Text #2
ID : 5
Format : UTF-8
Codec ID : S_TEXT/UTF8
Codec ID/Info : UTF-8 Plain Text
Title : napisy ENG 2D
Language : English
Default : No
Forced : No

Text #3
ID : 6
Format : PGS
Muxing mode : zlib
Codec ID : S_HDMV/PGS
Codec ID/Info : The same subtitle format used on BDs/HD-DVDs
Title : napisy PL 3D
Language : Polish
Default : No
Forced : No

Text #4
ID : 7
Format : PGS
Muxing mode : zlib
Codec ID : S_HDMV/PGS
Codec ID/Info : The same subtitle format used on BDs/HD-DVDs
Title : napisy ENG 3D
Language : English
Default : No
Forced : No

Source:
A/V- Moana (2016) Blu-ray 3D EUR 1080p AVC DD5.1-HDCLUB
Dubbing PL - iTunes
Thanks - Sonda

Lista plików Show/Hide [Pokaż/Ukryj]
Trackery Show/Hide [Pokaż/Ukryj]

Komentarze są widoczne dla osób zalogowanych!

Żaden z plików nie znajduje się na serwerze. Torrenty są własnością użytkowników. Administrator serwisu nie może ponieść konsekwencji za to co użytkownicy wstawiają, lub za to co czynią na stronie. Nie możesz używać tego serwisu do rozpowszechniania lub ściągania materiałów do których nie masz odpowiednich praw lub licencji. Użytkownicy odpowiedzialni są za przestrzeganie tych zasad.
Copyright © 2023 Ex-torrenty.org