Ex-torrenty.org
TV / Dramat historyczny
Shogun (2024) (Season 1) S01E05 (WEB-DL DSNP 2160p DoVi HDR x265 HEVC) (Audio Polish-English-Italian) (MULTiSub) (elladajarek)


Dodał: elladajarek
Data dodania:
2024-03-19 16:13:30
Rozmiar: 6.09 GB
Ostat. aktualizacja:
2024-05-11 19:10:16
Seedów: 25
Peerów: 19


Komentarze: 5

..::INFO::..

Twórcy: Rachel Kondo, Justin Marks
Zdjęcia: Sam McCurdy
Muzyka: Atticus Ross, Leopold Ross and Nick Chuba
Scenariusz: Matt Lambert
Reżyseria: Frederick E.D. Toye
Gatunek: Przygodowy, Dramat historyczny
Produkcja: USA
Premiera: 27 lutego 2024 (Światowa)
Odcinek wyemitowany Tue, Mar 19, 2024
Dystrybutor: Disney+

..::OPIS::..

Blackthorne i Mariko starają się ukryć sekret, który może doprowadzić do ich śmierci. Yabushige szuka szpiega, który zdradził swoje zamiary Lordowi Toranadze.

..::OBSADA::..

★ Hiroyuki Sanada .... Yoshii Toranaga
★ Tadanobu Asano .... Kashigi Yabushige
★ Cosmo Jarvis .... John Blackthorne
★ Anna Sawai .... Mariko
★ Emi Kamito .... Chiyo

..::DANE-TECH::..

Format : Matroska
Format version : Version 4
File size : 6.09 GiB
Duration : 56 min 15 s
Overall bit rate : 15.5 Mb/s
Frame rate : 24.000 FPS
Movie name : Shogun (2024) S01E05 Broken to the Fist
Writing application : mkvmerge v79.0 ('Funeral Pyres') 64-bit
Writing library : libebml v1.4.4 + libmatroska v1.7.1

Video
ID : 1
Format : HEVC
Format/Info : High Efficiency Video Coding
Format profile : Main 10@L5@High
HDR format : Dolby Vision, Version 1.0, dvhe.08.06, BL+RPU, HDR10 compatible / SMPTE ST 2086, HDR10 compatible
Codec ID : V_MPEGH/ISO/HEVC
Duration : 56 min 15 s
Bit rate : 14.7 Mb/s
Width : 3 840 pixels
Height : 2 160 pixels
Display aspect ratio : 16:9
Frame rate mode : Constant
Frame rate : 24.000 FPS
Color space : YUV
Chroma subsampling : 4:2:0
Bit depth : 10 bits
Bits/(Pixel*Frame) : 0.074
Stream size : 5.78 GiB (95%)
Language : English
Default : Yes
Forced : No
Color range : Limited
Color primaries : BT.2020
Transfer characteristics : PQ
Matrix coefficients : BT.2020 non-constant
Mastering display color primar : Display P3
Mastering display luminance : min: 0.0001 cd/m2, max: 1000 cd/m2

Audio #1
ID : 2
Format : E-AC-3
Format/Info : Enhanced AC-3
Commercial name : Dolby Digital Plus
Codec ID : A_EAC3
Duration : 56 min 15 s
Bit rate mode : Constant
Bit rate : 256 kb/s
Channel(s) : 6 channels
Channel layout : L R C LFE Ls Rs
Sampling rate : 48.0 kHz
Frame rate : 31.250 FPS (1536 SPF)
Compression mode : Lossy
Stream size : 103 MiB (2%)
Language : Polish
Service kind : Complete Main
Default : Yes
Forced : No

Audio #2
ID : 3
Format : E-AC-3
Format/Info : Enhanced AC-3
Commercial name : Dolby Digital Plus
Codec ID : A_EAC3
Duration : 56 min 15 s
Bit rate mode : Constant
Bit rate : 256 kb/s
Channel(s) : 6 channels
Channel layout : L R C LFE Ls Rs
Sampling rate : 48.0 kHz
Frame rate : 31.250 FPS (1536 SPF)
Compression mode : Lossy
Stream size : 103 MiB (2%)
Language : English
Service kind : Complete Main
Default : No
Forced : No

Audio #3
ID : 4
Format : E-AC-3
Format/Info : Enhanced AC-3
Commercial name : Dolby Digital Plus
Codec ID : A_EAC3
Duration : 56 min 15 s
Bit rate mode : Constant
Bit rate : 256 kb/s
Channel(s) : 6 channels
Channel layout : L R C LFE Ls Rs
Sampling rate : 48.0 kHz
Frame rate : 31.250 FPS (1536 SPF)
Compression mode : Lossy
Stream size : 103 MiB (2%)
Language : Italian
Service kind : Complete Main
Default : No
Forced : No

Text #1
ID : 5
Format : UTF-8
Codec ID : S_TEXT/UTF8
Codec ID/Info : UTF-8 Plain Text
Duration : 10 s 541 ms
Bit rate : 32 b/s
Frame rate : 0.190 FPS
Count of elements : 2
Stream size : 43.0 Bytes (0%)
Title : Forced
Language : Polish
Default : No
Forced : Yes

Text #2
ID : 6
Format : UTF-8
Codec ID : S_TEXT/UTF8
Codec ID/Info : UTF-8 Plain Text
Duration : 55 min 59 s
Bit rate : 42 b/s
Frame rate : 0.161 FPS
Count of elements : 541
Stream size : 17.3 KiB (0%)
Language : Polish
Default : No
Forced : No

Text #3
ID : 7
Format : UTF-8
Codec ID : S_TEXT/UTF8
Codec ID/Info : UTF-8 Plain Text
Duration : 55 min 59 s
Bit rate : 44 b/s
Frame rate : 0.158 FPS
Count of elements : 531
Stream size : 18.1 KiB (0%)
Language : Czech
Default : No
Forced : No

Text #4
ID : 8
Format : UTF-8
Codec ID : S_TEXT/UTF8
Codec ID/Info : UTF-8 Plain Text
Duration : 55 min 59 s
Bit rate : 41 b/s
Frame rate : 0.168 FPS
Count of elements : 565
Stream size : 16.9 KiB (0%)
Language : Danish
Default : No
Forced : No

Text #5
ID : 9
Format : UTF-8
Codec ID : S_TEXT/UTF8
Codec ID/Info : UTF-8 Plain Text
Duration : 55 min 59 s
Bit rate : 46 b/s
Frame rate : 0.167 FPS
Count of elements : 561
Stream size : 19.1 KiB (0%)
Language : German
Default : No
Forced : No

Text #6
ID : 10
Format : UTF-8
Codec ID : S_TEXT/UTF8
Codec ID/Info : UTF-8 Plain Text
Duration : 55 min 59 s
Bit rate : 75 b/s
Frame rate : 0.164 FPS
Count of elements : 551
Stream size : 30.9 KiB (0%)
Language : Greek
Default : No
Forced : No

Text #7
ID : 11
Format : UTF-8
Codec ID : S_TEXT/UTF8
Codec ID/Info : UTF-8 Plain Text
Duration : 54 min 19 s
Bit rate : 25 b/s
Frame rate : 0.108 FPS
Count of elements : 352
Stream size : 10.0 KiB (0%)
Title : Forced
Language : English
Default : No
Forced : No

Text #8
ID : 12
Format : UTF-8
Codec ID : S_TEXT/UTF8
Codec ID/Info : UTF-8 Plain Text
Duration : 54 min 21 s
Bit rate : 44 b/s
Frame rate : 0.174 FPS
Count of elements : 569
Stream size : 17.6 KiB (0%)
Language : English
Default : No
Forced : No

Text #9
ID : 13
Format : UTF-8
Codec ID : S_TEXT/UTF8
Codec ID/Info : UTF-8 Plain Text
Duration : 55 min 59 s
Bit rate : 41 b/s
Frame rate : 0.164 FPS
Count of elements : 551
Stream size : 17.1 KiB (0%)
Title : Latin American
Language : Spanish (Latin America)
Default : No
Forced : No

Text #10
ID : 14
Format : UTF-8
Codec ID : S_TEXT/UTF8
Codec ID/Info : UTF-8 Plain Text
Duration : 55 min 59 s
Bit rate : 43 b/s
Frame rate : 0.166 FPS
Count of elements : 559
Stream size : 17.7 KiB (0%)
Language : Spanish (ES)
Default : No
Forced : No

Text #11
ID : 15
Format : UTF-8
Codec ID : S_TEXT/UTF8
Codec ID/Info : UTF-8 Plain Text
Duration : 55 min 59 s
Bit rate : 43 b/s
Frame rate : 0.163 FPS
Count of elements : 546
Stream size : 17.8 KiB (0%)
Language : Finnish
Default : No
Forced : No

Text #12
ID : 16
Format : UTF-8
Codec ID : S_TEXT/UTF8
Codec ID/Info : UTF-8 Plain Text
Duration : 55 min 59 s
Bit rate : 45 b/s
Frame rate : 0.163 FPS
Count of elements : 546
Stream size : 18.7 KiB (0%)
Language : French (FR)
Default : No
Forced : No

Text #13
ID : 17
Format : UTF-8
Codec ID : S_TEXT/UTF8
Codec ID/Info : UTF-8 Plain Text
Duration : 55 min 59 s
Bit rate : 45 b/s
Frame rate : 0.166 FPS
Count of elements : 558
Stream size : 18.7 KiB (0%)
Language : Hungarian
Default : No
Forced : No

Text #14
ID : 18
Format : UTF-8
Codec ID : S_TEXT/UTF8
Codec ID/Info : UTF-8 Plain Text
Duration : 54 min 21 s
Bit rate : 30 b/s
Frame rate : 0.112 FPS
Count of elements : 364
Stream size : 12.1 KiB (0%)
Title : Forced
Language : Italian
Default : No
Forced : Yes

Text #15
ID : 19
Format : UTF-8
Codec ID : S_TEXT/UTF8
Codec ID/Info : UTF-8 Plain Text
Duration : 55 min 59 s
Bit rate : 42 b/s
Frame rate : 0.162 FPS
Count of elements : 543
Stream size : 17.4 KiB (0%)
Language : Italian
Default : No
Forced : No

Text #16
ID : 20
Format : UTF-8
Codec ID : S_TEXT/UTF8
Codec ID/Info : UTF-8 Plain Text
Duration : 54 min 21 s
Bit rate : 55 b/s
Frame rate : 0.204 FPS
Count of elements : 665
Stream size : 22.1 KiB (0%)
Language : Japanese
Default : No
Forced : No

Text #17
ID : 21
Format : UTF-8
Codec ID : S_TEXT/UTF8
Codec ID/Info : UTF-8 Plain Text
Duration : 55 min 59 s
Bit rate : 51 b/s
Frame rate : 0.168 FPS
Count of elements : 565
Stream size : 21.3 KiB (0%)
Language : Korean
Default : No
Forced : No

Text #18
ID : 22
Format : UTF-8
Codec ID : S_TEXT/UTF8
Codec ID/Info : UTF-8 Plain Text
Duration : 55 min 59 s
Bit rate : 42 b/s
Frame rate : 0.130 FPS
Count of elements : 437
Stream size : 17.3 KiB (0%)
Language : Dutch
Default : No
Forced : No

Text #19
ID : 23
Format : UTF-8
Codec ID : S_TEXT/UTF8
Codec ID/Info : UTF-8 Plain Text
Duration : 55 min 59 s
Bit rate : 40 b/s
Frame rate : 0.164 FPS
Count of elements : 552
Stream size : 16.7 KiB (0%)
Language : Norwegian
Default : No
Forced : No

Text #20
ID : 24
Format : UTF-8
Codec ID : S_TEXT/UTF8
Codec ID/Info : UTF-8 Plain Text
Duration : 54 min 21 s
Bit rate : 42 b/s
Frame rate : 0.169 FPS
Count of elements : 550
Stream size : 17.1 KiB (0%)
Title : Brazilian
Language : Portuguese (BR)
Default : No
Forced : No

Text #21
ID : 25
Format : UTF-8
Codec ID : S_TEXT/UTF8
Codec ID/Info : UTF-8 Plain Text
Duration : 55 min 59 s
Bit rate : 43 b/s
Frame rate : 0.168 FPS
Count of elements : 565
Stream size : 18.0 KiB (0%)
Language : Portuguese (PT)
Default : No
Forced : No

Text #22
ID : 26
Format : UTF-8
Codec ID : S_TEXT/UTF8
Codec ID/Info : UTF-8 Plain Text
Duration : 55 min 59 s
Bit rate : 42 b/s
Frame rate : 0.136 FPS
Count of elements : 458
Stream size : 17.4 KiB (0%)
Language : Romanian
Default : No
Forced : No

Text #23
ID : 27
Format : UTF-8
Codec ID : S_TEXT/UTF8
Codec ID/Info : UTF-8 Plain Text
Duration : 55 min 59 s
Bit rate : 40 b/s
Frame rate : 0.167 FPS
Count of elements : 561
Stream size : 16.8 KiB (0%)
Language : Slovak
Default : No
Forced : No

Text #24
ID : 28
Format : UTF-8
Codec ID : S_TEXT/UTF8
Codec ID/Info : UTF-8 Plain Text
Duration : 55 min 59 s
Bit rate : 41 b/s
Frame rate : 0.153 FPS
Count of elements : 515
Stream size : 16.9 KiB (0%)
Language : Swedish
Default : No
Forced : No

Text #25
ID : 29
Format : UTF-8
Codec ID : S_TEXT/UTF8
Codec ID/Info : UTF-8 Plain Text
Duration : 55 min 59 s
Bit rate : 44 b/s
Frame rate : 0.167 FPS
Count of elements : 561
Stream size : 18.2 KiB (0%)
Language : Turkish
Default : No
Forced : No

Text #26
ID : 30
Format : UTF-8
Codec ID : S_TEXT/UTF8
Codec ID/Info : UTF-8 Plain Text
Duration : 55 min 59 s
Bit rate : 38 b/s
Frame rate : 0.168 FPS
Count of elements : 565
Stream size : 15.9 KiB (0%)
Title : Traditional
Language : Chinese (Traditional)
Default : No
Forced : No

Lista plików

Trackery

  • http://open.acgnxtracker.com:80/announce
  • udp://tracker.opentrackr.org:1337/announce
  • udp://93.158.213.92:1337/announce
  • http://ipv4announce.sktorrent.eu:6969/announce
  • http://tracker.files.fm:6969/announce
  • https://tracker.tamersunion.org:443/announce
  • udp://tracker.tiny-vps.com:6969/announce
  • udp://tracker.openbittorrent.com:1337/announce
  • http://tracker.dler.org:6969/announce
  • http://tracker2.dler.org:80/announce
  • udp://retracker.lanta-net.ru:2710/announce
  • Komentarze są widoczne dla osób zalogowanych!

    Żaden z plików nie znajduje się na serwerze. Torrenty są własnością użytkowników. Administrator serwisu nie może ponieść konsekwencji za to co użytkownicy wstawiają, lub za to co czynią na stronie. Nie możesz używać tego serwisu do rozpowszechniania lub ściągania materiałów do których nie masz odpowiednich praw lub licencji. Użytkownicy odpowiedzialni są za przestrzeganie tych zasad.
    Copyright © 2024 Ex-torrenty.org